  0
SECTION
  2
HEADER
  9
$ACADVER
  1
AC1015
  9
$ACADMAINTVER
 70
    10
  9
$DWGCODEPAGE
  3
ANSI_1250
  9
$INSBASE
 10
-248.8587790555544
 20
-56.51663340487229
 30
0.0
  9
$EXTMIN
 10
-48.96216116524347
 20
-314.8120227835489
 30
0.0
  9
$EXTMAX
 10
158.7936691796149
 20
-43.5693587917257
 30
0.0
  9
$LIMMIN
 10
0.0
 20
0.0
  9
$LIMMAX
 10
30000.0
 20
20000.0
  9
$ORTHOMODE
 70
     1
  9
$REGENMODE
 70
     1
  9
$FILLMODE
 70
     1
  9
$QTEXTMODE
 70
     0
  9
$MIRRTEXT
 70
     0
  9
$LTSCALE
 40
10.0
  9
$ATTMODE
 70
     1
  9
$TEXTSIZE
 40
3.0
  9
$TRACEWID
 40
0.05
  9
$TEXTSTYLE
  7
a
  9
$CLAYER
  8
0
  9
$CELTYPE
  6
BYLAYER
  9
$CECOLOR
 62
   256
  9
$CELTSCALE
 40
1.0
  9
$DISPSILH
 70
     0
  9
$DIMSCALE
 40
0.0
  9
$DIMASZ
 40
3.0
  9
$DIMEXO
 40
1.0
  9
$DIMDLI
 40
1.0
  9
$DIMRND
 40
0.0
  9
$DIMDLE
 40
0.0
  9
$DIMEXE
 40
1.0
  9
$DIMTP
 40
0.0
  9
$DIMTM
 40
0.0
  9
$DIMTXT
 40
3.0
  9
$DIMCEN
 40
0.0
  9
$DIMTSZ
 40
0.0
  9
$DIMTOL
 70
     0
  9
$DIMLIM
 70
     0
  9
$DIMTIH
 70
     0
  9
$DIMTOH
 70
     0
  9
$DIMSE1
 70
     0
  9
$DIMSE2
 70
     0
  9
$DIMTAD
 70
     1
  9
$DIMZIN
 70
     0
  9
$DIMBLK
  1

  9
$DIMASO
 70
     1
  9
$DIMSHO
 70
     1
  9
$DIMPOST
  1

  9
$DIMAPOST
  1

  9
$DIMALT
 70
     0
  9
$DIMALTD
 70
     2
  9
$DIMALTF
 40
25.4
  9
$DIMLFAC
 40
1.0
  9
$DIMTOFL
 70
     1
  9
$DIMTVP
 40
0.9
  9
$DIMTIX
 70
     0
  9
$DIMSOXD
 70
     0
  9
$DIMSAH
 70
     0
  9
$DIMBLK1
  1

  9
$DIMBLK2
  1

  9
$DIMSTYLE
  2
KOTY
  9
$DIMCLRD
 70
     8
  9
$DIMCLRE
 70
     8
  9
$DIMCLRT
 70
     8
  9
$DIMTFAC
 40
0.5
  9
$DIMGAP
 40
1.0
  9
$DIMJUST
 70
     0
  9
$DIMSD1
 70
     0
  9
$DIMSD2
 70
     0
  9
$DIMTOLJ
 70
     1
  9
$DIMTZIN
 70
     0
  9
$DIMALTZ
 70
     0
  9
$DIMALTTZ
 70
     0
  9
$DIMUPT
 70
     0
  9
$DIMDEC
 70
     0
  9
$DIMTDEC
 70
     0
  9
$DIMALTU
 70
     2
  9
$DIMALTTD
 70
     2
  9
$DIMTXSTY
  7
SIMPLEX
  9
$DIMAUNIT
 70
     0
  9
$DIMADEC
 70
     0
  9
$DIMALTRND
 40
0.0
  9
$DIMAZIN
 70
     0
  9
$DIMDSEP
 70
    46
  9
$DIMATFIT
 70
     3
  9
$DIMFRAC
 70
     0
  9
$DIMLDRBLK
  1

  9
$DIMLUNIT
 70
     2
  9
$DIMLWD
 70
    -2
  9
$DIMLWE
 70
    -2
  9
$DIMTMOVE
 70
     2
  9
$LUNITS
 70
     2
  9
$LUPREC
 70
     1
  9
$SKETCHINC
 40
3.775728894859868
  9
$FILLETRAD
 40
0.5
  9
$AUNITS
 70
     0
  9
$AUPREC
 70
     1
  9
$MENU
  1
acad
  9
$ELEVATION
 40
0.0
  9
$PELEVATION
 40
0.0
  9
$THICKNESS
 40
0.0
  9
$LIMCHECK
 70
     0
  9
$CHAMFERA
 40
0.0
  9
$CHAMFERB
 40
0.0
  9
$CHAMFERC
 40
0.0
  9
$CHAMFERD
 40
0.0
  9
$SKPOLY
 70
     0
  9
$TDCREATE
 40
2450938.391882766
  9
$TDUCREATE
 40
2450938.350216099
  9
$TDUPDATE
 40
2454553.608555220
  9
$TDUUPDATE
 40
2454553.566888553
  9
$TDINDWG
 40
18.6902767593
  9
$TDUSRTIMER
 40
18.6902767593
  9
$USRTIMER
 70
     1
  9
$ANGBASE
 50
0.0
  9
$ANGDIR
 70
     0
  9
$PDMODE
 70
     3
  9
$PDSIZE
 40
0.0
  9
$PLINEWID
 40
0.0
  9
$SPLFRAME
 70
     0
  9
$SPLINETYPE
 70
     6
  9
$SPLINESEGS
 70
     8
  9
$HANDSEED
  5
6A1
  9
$SURFTAB1
 70
     6
  9
$SURFTAB2
 70
     6
  9
$SURFTYPE
 70
     6
  9
$SURFU
 70
     6
  9
$SURFV
 70
     6
  9
$UCSBASE
  2

  9
$UCSNAME
  2

  9
$UCSORG
 10
0.0
 20
0.0
 30
0.0
  9
$UCSXDIR
 10
1.0
 20
0.0
 30
0.0
  9
$UCSYDIR
 10
0.0
 20
1.0
 30
0.0
  9
$UCSORTHOREF
  2

  9
$UCSORTHOVIEW
 70
     0
  9
$UCSORGTOP
 10
0.0
 20
0.0
 30
0.0
  9
$UCSORGBOTTOM
 10
0.0
 20
0.0
 30
0.0
  9
$UCSORGLEFT
 10
0.0
 20
0.0
 30
0.0
  9
$UCSORGRIGHT
 10
0.0
 20
0.0
 30
0.0
  9
$UCSORGFRONT
 10
0.0
 20
0.0
 30
0.0
  9
$UCSORGBACK
 10
0.0
 20
0.0
 30
0.0
  9
$PUCSBASE
  2

  9
$PUCSNAME
  2

  9
$PUCSORG
 10
0.0
 20
0.0
 30
0.0
  9
$PUCSXDIR
 10
1.0
 20
0.0
 30
0.0
  9
$PUCSYDIR
 10
0.0
 20
1.0
 30
0.0
  9
$PUCSORTHOREF
  2

  9
$PUCSORTHOVIEW
 70
     0
  9
$PUCSORGTOP
 10
0.0
 20
0.0
 30
0.0
  9
$PUCSORGBOTTOM
 10
0.0
 20
0.0
 30
0.0
  9
$PUCSORGLEFT
 10
0.0
 20
0.0
 30
0.0
  9
$PUCSORGRIGHT
 10
0.0
 20
0.0
 30
0.0
  9
$PUCSORGFRONT
 10
0.0
 20
0.0
 30
0.0
  9
$PUCSORGBACK
 10
0.0
 20
0.0
 30
0.0
  9
$USERI1
 70
     0
  9
$USERI2
 70
     0
  9
$USERI3
 70
     0
  9
$USERI4
 70
     0
  9
$USERI5
 70
     0
  9
$USERR1
 40
0.0
  9
$USERR2
 40
0.0
  9
$USERR3
 40
0.0
  9
$USERR4
 40
0.0
  9
$USERR5
 40
0.0
  9
$WORLDVIEW
 70
     1
  9
$SHADEDGE
 70
     3
  9
$SHADEDIF
 70
    70
  9
$TILEMODE
 70
     1
  9
$MAXACTVP
 70
    20
  9
$PINSBASE
 10
0.0
 20
0.0
 30
0.0
  9
$PLIMCHECK
 70
     0
  9
$PEXTMIN
 10
1.13274998364486
 20
0.7785833107204887
 30
0.0
  9
$PEXTMAX
 10
10.19474985280374
 20
7.007249796484399
 30
0.0
  9
$PLIMMIN
 10
2.319634033623884
 20
6.504555889481957
  9
$PLIMMAX
 10
4.536552530751301
 20
8.07289773470126
  9
$UNITMODE
 70
     0
  9
$VISRETAIN
 70
     0
  9
$PLINEGEN
 70
     0
  9
$PSLTSCALE
 70
     1
  9
$TREEDEPTH
 70
  3020
  9
$CMLSTYLE
  2
STANDARD
  9
$CMLJUST
 70
     0
  9
$CMLSCALE
 40
0.3
  9
$PROXYGRAPHICS
 70
     1
  9
$MEASUREMENT
 70
     0
  9
$CELWEIGHT
370
    -1
  9
$ENDCAPS
280
     0
  9
$JOINSTYLE
280
     0
  9
$LWDISPLAY
290
     0
  9
$INSUNITS
 70
     0
  9
$HYPERLINKBASE
  1

  9
$STYLESHEET
  1

  9
$XEDIT
290
     1
  9
$CEPSNTYPE
380
     0
  9
$PSTYLEMODE
290
     1
  9
$FINGERPRINTGUID
  2
{39CD6505-08BF-11D4-B1E1-0000B48F6CD8}
  9
$VERSIONGUID
  2
{D360A487-D61A-4262-8979-2B5030E47B5C}
  9
$EXTNAMES
290
     1
  9
$PSVPSCALE
 40
0.0
  9
$OLESTARTUP
290
     0
  0
ENDSEC
  0
SECTION
  2
CLASSES
  0
CLASS
  1
LWPOLYLINE
  2
AcDbPolyline
  3
AutoCAD 2000
 90
    32768
280
     0
281
     1
  0
CLASS
  1
DICTIONARYVAR
  2
AcDbDictionaryVar
  3
AutoCAD 2000
 90
        0
280
     0
281
     0
  0
CLASS
  1
HATCH
  2
AcDbHatch
  3
AutoCAD 2000
 90
    32768
280
     0
281
     1
  0
CLASS
  1
SORTENTSTABLE
  2
AcDbSortentsTable
  3
AutoCAD 2000
 90
        0
280
     0
281
     0
  0
CLASS
  1
ACDBDICTIONARYWDFLT
  2
AcDbDictionaryWithDefault
  3
AutoCAD 2000
 90
        0
280
     0
281
     0
  0
CLASS
  1
ACDBPLACEHOLDER
  2
AcDbPlaceHolder
  3
AutoCAD 2000
 90
        0
280
     0
281
     0
  0
CLASS
  1
LAYOUT
  2
AcDbLayout
  3
AutoCAD 2000
 90
        0
280
     0
281
     0
  0
ENDSEC
  0
SECTION
  2
TABLES
  0
TABLE
  2
VPORT
  5
1B
330
0
100
AcDbSymbolTable
 70
     5
  0
VPORT
  5
6A0
330
1B
100
AcDbSymbolTableRecord
100
AcDbViewportTableRecord
  2
*Active
 70
     0
 10
0.0
 20
0.0
 11
1.0
 21
1.0
 12
50.60083725934659
 22
-100.3719509618993
 13
0.0
 23
0.0
 14
0.1
 24
0.1
 15
0.0
 25
0.0
 16
0.0
 26
0.0
 36
1.0
 17
0.0
 27
0.0
 37
0.0
 40
141.8185292671066
 41
1.496962332928311
 42
50.0
 43
0.0
 44
0.0
 50
0.0
 51
0.0
 71
     0
 72
   200
 73
     1
 74
     0
 75
     0
 76
     0
 77
     0
 78
     0
281
     0
 65
     1
110
0.0
120
0.0
130
0.0
111
1.0
121
0.0
131
0.0
112
0.0
122
1.0
132
0.0
 79
     0
146
0.0
  0
ENDTAB
  0
TABLE
  2
LTYPE
  5
16
330
0
100
AcDbSymbolTable
 70
     2
  0
LTYPE
  5
17
330
16
100
AcDbSymbolTableRecord
100
AcDbLinetypeTableRecord
  2
BYBLOCK
 70
     0
  3

 72
    65
 73
     0
 40
0.0
  0
LTYPE
  5
18
330
16
100
AcDbSymbolTableRecord
100
AcDbLinetypeTableRecord
  2
BYLAYER
 70
     0
  3

 72
    65
 73
     0
 40
0.0
  0
LTYPE
  5
A
330
16
100
AcDbSymbolTableRecord
100
AcDbLinetypeTableRecord
  2
CONTINUOUS
 70
     0
  3
Solid line
 72
    65
 73
     0
 40
0.0
  0
LTYPE
  5
4E1
330
16
100
AcDbSymbolTableRecord
100
AcDbLinetypeTableRecord
  2
ČÁRKOVANÁ
 70
     0
  3
Čárkovaná __ __ __ __ __ __ __ __ __ __ __ __ _
 72
    65
 73
     2
 40
0.75
 49
0.5
 74
     0
 49
-0.25
 74
     0
  0
ENDTAB
  0
TABLE
  2
LAYER
  5
12
330
0
100
AcDbSymbolTable
 70
     6
  0
LAYER
  5
6
330
12
100
AcDbSymbolTableRecord
100
AcDbLayerTableRecord
  2
0
 70
     0
 62
     7
  6
CONTINUOUS
370
    -3
390
7
  0
LAYER
  5
47
330
12
100
AcDbSymbolTableRecord
100
AcDbLayerTableRecord
  2
KRABICKA
 70
     0
 62
     7
  6
CONTINUOUS
370
    -3
390
7
  0
LAYER
  5
F0
330
12
100
AcDbSymbolTableRecord
100
AcDbLayerTableRecord
  2
STITEK_M
 70
     0
 62
   253
  6
CONTINUOUS
370
    -3
390
7
  0
LAYER
  5
32
330
12
100
AcDbSymbolTableRecord
100
AcDbLayerTableRecord
  2
KOTY
 70
     0
 62
     1
  6
CONTINUOUS
370
    -3
390
7
  0
LAYER
  5
3DF
330
12
100
AcDbSymbolTableRecord
100
AcDbLayerTableRecord
  2
Defpoints
 70
     0
 62
     7
  6
CONTINUOUS
290
     0
370
    -3
390
7
  0
LAYER
  5
522
330
12
100
AcDbSymbolTableRecord
100
AcDbLayerTableRecord
  2
TLACITKA
 70
     0
 62
   255
  6
CONTINUOUS
370
    -3
390
7
  0
ENDTAB
  0
TABLE
  2
STYLE
  5
13
330
0
100
AcDbSymbolTable
 70
     4
  0
STYLE
  5
14
330
13
100
AcDbSymbolTableRecord
100
AcDbTextStyleTableRecord
  2
STANDARD
 70
     0
 40
0.0
 41
1.0
 50
0.0
 71
     0
 42
0.5
  3
simplex.shx
  4

  0
STYLE
  5
21
330
13
100
AcDbSymbolTableRecord
100
AcDbTextStyleTableRecord
  2
SIMPLEX
 70
     0
 40
0.0
 41
0.9
 50
0.0
 71
     0
 42
3.0
  3
simplex.shx
  4

  0
STYLE
  5
E6
330
13
100
AcDbSymbolTableRecord
100
AcDbTextStyleTableRecord
  2
FUTURA_XXL
 70
     0
 40
0.0
 41
1.0
 50
0.0
 71
     0
 42
1.199999999999999
  3

  4

1001
ACAD
1000
Futura XBlk BT
1071
       34
  0
STYLE
  5
2A6
330
13
100
AcDbSymbolTableRecord
100
AcDbTextStyleTableRecord
  2
a
 70
     0
 40
0.0
 41
1.0
 50
0.0
 71
     0
 42
3.0
  3
TREBUCBD.TTF
  4

1001
ACAD
1000
Trebuchet MS
1071
 33554466
  0
ENDTAB
  0
TABLE
  2
VIEW
  5
19
330
0
100
AcDbSymbolTable
 70
     0
  0
ENDTAB
  0
TABLE
  2
UCS
  5
1A
330
0
100
AcDbSymbolTable
 70
     0
  0
ENDTAB
  0
TABLE
  2
APPID
  5
1D
330
0
100
AcDbSymbolTable
 70
     1
  0
APPID
  5
1E
330
1D
100
AcDbSymbolTableRecord
100
AcDbRegAppTableRecord
  2
ACAD
 70
     0
  0
ENDTAB
  0
TABLE
  2
DIMSTYLE
  5
1F
330
0
100
AcDbSymbolTable
 70
     1
100
AcDbDimStyleTable
 71
     1
340
20
  0
DIMSTYLE
105
20
102
{ACAD_REACTORS
330
3EC
330
40B
330
41A
330
41B
330
44A
330
457
330
46D
330
495
330
4F4
330
501
102
}
330
1F
100
AcDbSymbolTableRecord
100
AcDbDimStyleTableRecord
  2
KOTY
 70
     0
 40
0.0
 41
3.0
 42
1.0
 43
1.0
 44
1.0
 73
     0
 74
     0
 77
     1
140
3.0
141
0.0
145
0.9
146
0.5
147
1.0
172
     1
176
     8
177
     8
178
     8
271
     0
272
     0
279
     2
340
21
  0
ENDTAB
  0
TABLE
  2
BLOCK_RECORD
  5
1
330
0
100
AcDbSymbolTable
 70
    10
  0
BLOCK_RECORD
  5
2
102
{ACAD_XDICTIONARY
360
3
102
}
330
1
100
AcDbSymbolTableRecord
100
AcDbBlockTableRecord
  2
*MODEL_SPACE
340
C
  0
BLOCK_RECORD
  5
E
330
1
100
AcDbSymbolTableRecord
100
AcDbBlockTableRecord
  2
*PAPER_SPACE
340
11
  0
BLOCK_RECORD
  5
3ED
330
1
100
AcDbSymbolTableRecord
100
AcDbBlockTableRecord
  2
*D0
340
0
  0
BLOCK_RECORD
  5
40C
330
1
100
AcDbSymbolTableRecord
100
AcDbBlockTableRecord
  2
*D1
340
0
  0
BLOCK_RECORD
  5
41C
330
1
100
AcDbSymbolTableRecord
100
AcDbBlockTableRecord
  2
*D2
340
0
  0
BLOCK_RECORD
  5
428
330
1
100
AcDbSymbolTableRecord
100
AcDbBlockTableRecord
  2
*D3
340
0
  0
BLOCK_RECORD
  5
44B
330
1
100
AcDbSymbolTableRecord
100
AcDbBlockTableRecord
  2
*D4
340
0
  0
BLOCK_RECORD
  5
458
330
1
100
AcDbSymbolTableRecord
100
AcDbBlockTableRecord
  2
*D5
340
0
  0
BLOCK_RECORD
  5
46E
330
1
100
AcDbSymbolTableRecord
100
AcDbBlockTableRecord
  2
*D6
340
0
  0
BLOCK_RECORD
  5
496
330
1
100
AcDbSymbolTableRecord
100
AcDbBlockTableRecord
  2
*D7
340
0
  0
BLOCK_RECORD
  5
4F5
330
1
100
AcDbSymbolTableRecord
100
AcDbBlockTableRecord
  2
*D8
340
0
  0
BLOCK_RECORD
  5
502
330
1
100
AcDbSymbolTableRecord
100
AcDbBlockTableRecord
  2
*D9
340
0
  0
ENDTAB
  0
ENDSEC
  0
SECTION
  2
BLOCKS
  0
BLOCK
  5
5
330
2
100
AcDbEntity
  8
0
100
AcDbBlockBegin
  2
*MODEL_SPACE
 70
     0
 10
0.0
 20
0.0
 30
0.0
  3
*MODEL_SPACE
  1

  0
ENDBLK
  5
B
330
2
100
AcDbEntity
  8
0
100
AcDbBlockEnd
  0
BLOCK
  5
F
330
E
100
AcDbEntity
 67
     1
  8
0
100
AcDbBlockBegin
  2
*PAPER_SPACE
 70
     0
 10
0.0
 20
0.0
 30
0.0
  3
*PAPER_SPACE
  1

  0
ENDBLK
  5
10
330
E
100
AcDbEntity
 67
     1
  8
0
100
AcDbBlockEnd
  0
BLOCK
  5
3F7
330
3ED
100
AcDbEntity
  8
0
100
AcDbBlockBegin
  2
*D0
 70
     1
 10
0.0
 20
0.0
 30
0.0
  3
*D0
  1

  0
LINE
  5
682
330
3ED
100
AcDbEntity
  8
KOTY
370
    -2
100
AcDbLine
 10
-39.05709357282569
 20
-149.5693594738603
 30
0.0
 11
-39.05709357282569
 21
-162.6725550114949
 31
0.0
  0
LINE
  5
683
330
3ED
100
AcDbEntity
  8
KOTY
370
    -2
100
AcDbLine
 10
134.9429064271743
 20
-149.5693594738603
 30
0.0
 11
134.9429064271743
 21
-162.6725550114949
 31
0.0
  0
LINE
  5
684
330
3ED
100
AcDbEntity
  8
KOTY
370
    -2
100
AcDbLine
 10
-36.05709357282569
 20
-161.6725550114949
 30
0.0
 11
131.9429064271743
 21
-161.6725550114949
 31
0.0
  0
SOLID
  5
685
330
3ED
100
AcDbEntity
  8
KOTY
100
AcDbTrace
 10
-36.05709357282569
 20
-161.1725550114949
 30
0.0
 11
-36.05709357282569
 21
-162.1725550114949
 31
0.0
 12
-39.05709357282569
 22
-161.6725550114949
 32
0.0
 13
-39.05709357282569
 23
-161.6725550114949
 33
0.0
  0
SOLID
  5
686
330
3ED
100
AcDbEntity
  8
KOTY
100
AcDbTrace
 10
131.9429064271743
 20
-161.1725550114949
 30
0.0
 11
131.9429064271743
 21
-162.1725550114949
 31
0.0
 12
134.9429064271743
 22
-161.6725550114949
 32
0.0
 13
134.9429064271743
 23
-161.6725550114949
 33
0.0
  0
MTEXT
  5
687
330
3ED
100
AcDbEntity
  8
KOTY
100
AcDbMText
 10
47.9429064271743
 20
-159.1725550114949
 30
0.0
 40
3.0
 41
0.0
 71
     5
 72
     1
  1
\A1;174
  7
SIMPLEX
 73
     1
 44
1.0
  0
POINT
  5
688
330
3ED
100
AcDbEntity
  8
Defpoints
 62
     0
100
AcDbPoint
 10
-39.05709357282569
 20
-148.5693594738603
 30
0.0
  0
POINT
  5
689
330
3ED
100
AcDbEntity
  8
Defpoints
 62
     0
100
AcDbPoint
 10
134.9429064271743
 20
-148.5693594738603
 30
0.0
  0
POINT
  5
68A
330
3ED
100
AcDbEntity
  8
Defpoints
 62
     0
100
AcDbPoint
 10
134.9429064271743
 20
-161.6725550114949
 30
0.0
  0
ENDBLK
  5
3F8
330
3ED
100
AcDbEntity
  8
0
100
AcDbBlockEnd
  0
BLOCK
  5
416
330
40C
100
AcDbEntity
  8
0
100
AcDbBlockBegin
  2
*D1
 70
     1
 10
0.0
 20
0.0
 30
0.0
  3
*D1
  1

  0
LINE
  5
68B
330
40C
100
AcDbEntity
  8
KOTY
370
    -2
100
AcDbLine
 10
135.9429064271743
 20
-43.5693587917257
 30
0.0
 11
151.4955414286437
 21
-43.56935879172571
 31
0.0
  0
LINE
  5
68C
330
40C
100
AcDbEntity
  8
KOTY
370
    -2
100
AcDbLine
 10
135.9429064271743
 20
-148.5693594738603
 30
0.0
 11
151.4955414286437
 21
-148.5693594738603
 31
0.0
  0
LINE
  5
68D
330
40C
100
AcDbEntity
  8
KOTY
370
    -2
100
AcDbLine
 10
150.4955414286437
 20
-46.56935879172571
 30
0.0
 11
150.4955414286437
 21
-145.5693594738603
 31
0.0
  0
SOLID
  5
68E
330
40C
100
AcDbEntity
  8
KOTY
100
AcDbTrace
 10
149.9955414286437
 20
-46.56935879172571
 30
0.0
 11
150.9955414286437
 21
-46.56935879172571
 31
0.0
 12
150.4955414286437
 22
-43.56935879172571
 32
0.0
 13
150.4955414286437
 23
-43.56935879172571
 33
0.0
  0
SOLID
  5
68F
330
40C
100
AcDbEntity
  8
KOTY
100
AcDbTrace
 10
149.9955414286437
 20
-145.5693594738603
 30
0.0
 11
150.9955414286437
 21
-145.5693594738603
 31
0.0
 12
150.4955414286437
 22
-148.5693594738603
 32
0.0
 13
150.4955414286437
 23
-148.5693594738603
 33
0.0
  0
MTEXT
  5
690
330
40C
100
AcDbEntity
  8
KOTY
100
AcDbMText
 10
147.9955414286437
 20
-96.06935913279301
 30
0.0
 40
3.0
 41
0.0
 71
     5
 72
     1
  1
\A1;105
  7
SIMPLEX
 11
0.0000000000000001
 21
1.0
 31
0.0
 73
     1
 44
1.0
  0
POINT
  5
691
330
40C
100
AcDbEntity
  8
Defpoints
 62
     0
100
AcDbPoint
 10
134.9429064271743
 20
-43.5693587917257
 30
0.0
  0
POINT
  5
692
330
40C
100
AcDbEntity
  8
Defpoints
 62
     0
100
AcDbPoint
 10
134.9429064271743
 20
-148.5693594738603
 30
0.0
  0
POINT
  5
693
330
40C
100
AcDbEntity
  8
Defpoints
 62
     0
100
AcDbPoint
 10
150.4955414286437
 20
-148.5693594738603
 30
0.0
  0
ENDBLK
  5
417
330
40C
100
AcDbEntity
  8
0
100
AcDbBlockEnd
  0
BLOCK
  5
426
330
41C
100
AcDbEntity
  8
0
100
AcDbBlockBegin
  2
*D2
 70
     1
 10
0.0
 20
0.0
 30
0.0
  3
*D2
  1

  0
LINE
  5
643
330
41C
100
AcDbEntity
  8
KOTY
370
    -2
100
AcDbLine
 10
-39.05709357282569
 20
-295.2126879204197
 30
0.0
 11
-39.05709357282569
 21
-314.8120227835489
 31
0.0
  0
LINE
  5
644
330
41C
100
AcDbEntity
  8
KOTY
370
    -2
100
AcDbLine
 10
134.9429064271743
 20
-295.2126879204197
 30
0.0
 11
134.9429064271743
 21
-314.8120227835489
 31
0.0
  0
LINE
  5
645
330
41C
100
AcDbEntity
  8
KOTY
370
    -2
100
AcDbLine
 10
-36.05709357282569
 20
-313.8120227835489
 30
0.0
 11
131.9429064271743
 21
-313.8120227835489
 31
0.0
  0
SOLID
  5
646
330
41C
100
AcDbEntity
  8
KOTY
100
AcDbTrace
 10
-36.05709357282569
 20
-313.3120227835489
 30
0.0
 11
-36.05709357282569
 21
-314.3120227835489
 31
0.0
 12
-39.05709357282569
 22
-313.8120227835489
 32
0.0
 13
-39.05709357282569
 23
-313.8120227835489
 33
0.0
  0
SOLID
  5
647
330
41C
100
AcDbEntity
  8
KOTY
100
AcDbTrace
 10
131.9429064271743
 20
-313.3120227835489
 30
0.0
 11
131.9429064271743
 21
-314.3120227835489
 31
0.0
 12
134.9429064271743
 22
-313.8120227835489
 32
0.0
 13
134.9429064271743
 23
-313.8120227835489
 33
0.0
  0
MTEXT
  5
648
330
41C
100
AcDbEntity
  8
KOTY
100
AcDbMText
 10
47.9429064271743
 20
-311.3120227835489
 30
0.0
 40
3.0
 41
0.0
 71
     5
 72
     1
  1
\A1;174
  7
SIMPLEX
 73
     1
 44
1.0
  0
POINT
  5
649
330
41C
100
AcDbEntity
  8
Defpoints
 62
     0
100
AcDbPoint
 10
-39.05709357282569
 20
-294.2126879204197
 30
0.0
  0
POINT
  5
64A
330
41C
100
AcDbEntity
  8
Defpoints
 62
     0
100
AcDbPoint
 10
134.9429064271743
 20
-294.2126879204197
 30
0.0
  0
POINT
  5
64B
330
41C
100
AcDbEntity
  8
Defpoints
 62
     0
100
AcDbPoint
 10
134.9429064271743
 20
-313.8120227835489
 30
0.0
  0
ENDBLK
  5
427
330
41C
100
AcDbEntity
  8
0
100
AcDbBlockEnd
  0
BLOCK
  5
432
330
428
100
AcDbEntity
  8
0
100
AcDbBlockBegin
  2
*D3
 70
     1
 10
0.0
 20
0.0
 30
0.0
  3
*D3
  1

  0
LINE
  5
670
330
428
100
AcDbEntity
  8
KOTY
370
    -2
100
AcDbLine
 10
135.9429064271743
 20
-189.2126872382851
 30
0.0
 11
158.7936691796149
 21
-189.2126872382851
 31
0.0
  0
LINE
  5
671
330
428
100
AcDbEntity
  8
KOTY
370
    -2
100
AcDbLine
 10
135.9429064271743
 20
-294.2126879204197
 30
0.0
 11
158.7936691796148
 21
-294.2126879204197
 31
0.0
  0
LINE
  5
672
330
428
100
AcDbEntity
  8
KOTY
370
    -2
100
AcDbLine
 10
157.7936691796148
 20
-192.2126872382851
 30
0.0
 11
157.7936691796148
 21
-291.2126879204197
 31
0.0
  0
SOLID
  5
673
330
428
100
AcDbEntity
  8
KOTY
100
AcDbTrace
 10
157.2936691796148
 20
-192.2126872382851
 30
0.0
 11
158.2936691796148
 21
-192.2126872382851
 31
0.0
 12
157.7936691796149
 22
-189.2126872382851
 32
0.0
 13
157.7936691796149
 23
-189.2126872382851
 33
0.0
  0
SOLID
  5
674
330
428
100
AcDbEntity
  8
KOTY
100
AcDbTrace
 10
157.2936691796148
 20
-291.2126879204197
 30
0.0
 11
158.2936691796148
 21
-291.2126879204197
 31
0.0
 12
157.7936691796148
 22
-294.2126879204197
 32
0.0
 13
157.7936691796148
 23
-294.2126879204197
 33
0.0
  0
MTEXT
  5
675
330
428
100
AcDbEntity
  8
KOTY
100
AcDbMText
 10
155.2936691796149
 20
-241.7126875793524
 30
0.0
 40
3.0
 41
0.0
 71
     5
 72
     1
  1
\A1;105
  7
SIMPLEX
 11
0.0000000000000001
 21
1.0
 31
0.0
 73
     1
 44
1.0
  0
POINT
  5
676
330
428
100
AcDbEntity
  8
Defpoints
 62
     0
100
AcDbPoint
 10
134.9429064271743
 20
-189.2126872382851
 30
0.0
  0
POINT
  5
677
330
428
100
AcDbEntity
  8
Defpoints
 62
     0
100
AcDbPoint
 10
134.9429064271743
 20
-294.2126879204197
 30
0.0
  0
POINT
  5
678
330
428
100
AcDbEntity
  8
Defpoints
 62
     0
100
AcDbPoint
 10
157.7936691796148
 20
-294.2126879204197
 30
0.0
  0
ENDBLK
  5
433
330
428
100
AcDbEntity
  8
0
100
AcDbBlockEnd
  0
BLOCK
  5
455
330
44B
100
AcDbEntity
  8
0
100
AcDbBlockBegin
  2
*D4
 70
     1
 10
0.0
 20
0.0
 30
0.0
  3
*D4
  1

  0
LINE
  5
667
330
44B
100
AcDbEntity
  8
KOTY
370
    -2
100
AcDbLine
 10
128.9429064271743
 20
-196.712687238285
 30
0.0
 11
151.828152619192
 21
-196.712687238285
 31
0.0
  0
LINE
  5
668
330
44B
100
AcDbEntity
  8
KOTY
370
    -2
100
AcDbLine
 10
128.9429064271743
 20
-286.7126879204198
 30
0.0
 11
151.828152619192
 21
-286.7126879204198
 31
0.0
  0
LINE
  5
669
330
44B
100
AcDbEntity
  8
KOTY
370
    -2
100
AcDbLine
 10
150.828152619192
 20
-199.7126872382851
 30
0.0
 11
150.828152619192
 21
-283.7126879204197
 31
0.0
  0
SOLID
  5
66A
330
44B
100
AcDbEntity
  8
KOTY
100
AcDbTrace
 10
150.3281526191919
 20
-199.7126872382851
 30
0.0
 11
151.3281526191919
 21
-199.7126872382851
 31
0.0
 12
150.828152619192
 22
-196.712687238285
 32
0.0
 13
150.828152619192
 23
-196.712687238285
 33
0.0
  0
SOLID
  5
66B
330
44B
100
AcDbEntity
  8
KOTY
100
AcDbTrace
 10
150.3281526191919
 20
-283.7126879204197
 30
0.0
 11
151.3281526191919
 21
-283.7126879204197
 31
0.0
 12
150.828152619192
 22
-286.7126879204198
 32
0.0
 13
150.828152619192
 23
-286.7126879204198
 33
0.0
  0
MTEXT
  5
66C
330
44B
100
AcDbEntity
  8
KOTY
100
AcDbMText
 10
148.328152619192
 20
-241.7126875793524
 30
0.0
 40
3.0
 41
0.0
 71
     5
 72
     1
  1
\A1;90
  7
SIMPLEX
 11
0.0000000000000001
 21
1.0
 31
0.0
 73
     1
 44
1.0
  0
POINT
  5
66D
330
44B
100
AcDbEntity
  8
Defpoints
 62
     0
100
AcDbPoint
 10
127.9429064271743
 20
-196.712687238285
 30
0.0
  0
POINT
  5
66E
330
44B
100
AcDbEntity
  8
Defpoints
 62
     0
100
AcDbPoint
 10
127.9429064271743
 20
-286.7126879204197
 30
0.0
  0
POINT
  5
66F
330
44B
100
AcDbEntity
  8
Defpoints
 62
     0
100
AcDbPoint
 10
150.828152619192
 20
-286.7126879204198
 30
0.0
  0
ENDBLK
  5
456
330
44B
100
AcDbEntity
  8
0
100
AcDbBlockEnd
  0
BLOCK
  5
462
330
458
100
AcDbEntity
  8
0
100
AcDbBlockBegin
  2
*D5
 70
     1
 10
0.0
 20
0.0
 30
0.0
  3
*D5
  1

  0
LINE
  5
64C
330
458
100
AcDbEntity
  8
KOTY
370
    -2
100
AcDbLine
 10
127.9429064271743
 20
-287.7126879204197
 30
0.0
 11
127.9429064271743
 21
-302.0504599947257
 31
0.0
  0
LINE
  5
64D
330
458
100
AcDbEntity
  8
KOTY
370
    -2
100
AcDbLine
 10
-32.05709357282569
 20
-287.7126879204197
 30
0.0
 11
-32.05709357282569
 21
-302.0504599947257
 31
0.0
  0
LINE
  5
64E
330
458
100
AcDbEntity
  8
KOTY
370
    -2
100
AcDbLine
 10
124.9429064271743
 20
-301.0504599947257
 30
0.0
 11
-29.05709357282569
 21
-301.0504599947257
 31
0.0
  0
SOLID
  5
64F
330
458
100
AcDbEntity
  8
KOTY
100
AcDbTrace
 10
124.9429064271743
 20
-300.5504599947257
 30
0.0
 11
124.9429064271743
 21
-301.5504599947257
 31
0.0
 12
127.9429064271743
 22
-301.0504599947257
 32
0.0
 13
127.9429064271743
 23
-301.0504599947257
 33
0.0
  0
SOLID
  5
650
330
458
100
AcDbEntity
  8
KOTY
100
AcDbTrace
 10
-29.05709357282569
 20
-300.5504599947257
 30
0.0
 11
-29.05709357282569
 21
-301.5504599947257
 31
0.0
 12
-32.05709357282569
 22
-301.0504599947257
 32
0.0
 13
-32.05709357282569
 23
-301.0504599947257
 33
0.0
  0
MTEXT
  5
651
330
458
100
AcDbEntity
  8
KOTY
100
AcDbMText
 10
47.9429064271743
 20
-298.5504599947257
 30
0.0
 40
3.0
 41
0.0
 71
     5
 72
     1
  1
\A1;160
  7
SIMPLEX
 73
     1
 44
1.0
  0
POINT
  5
652
330
458
100
AcDbEntity
  8
Defpoints
 62
     0
100
AcDbPoint
 10
127.9429064271743
 20
-286.7126879204197
 30
0.0
  0
POINT
  5
653
330
458
100
AcDbEntity
  8
Defpoints
 62
     0
100
AcDbPoint
 10
-32.05709357282569
 20
-286.7126879204197
 30
0.0
  0
POINT
  5
654
330
458
100
AcDbEntity
  8
Defpoints
 62
     0
100
AcDbPoint
 10
-32.05709357282569
 20
-301.0504599947257
 30
0.0
  0
ENDBLK
  5
463
330
458
100
AcDbEntity
  8
0
100
AcDbBlockEnd
  0
BLOCK
  5
478
330
46E
100
AcDbEntity
  8
0
100
AcDbBlockBegin
  2
*D6
 70
     1
 10
0.0
 20
0.0
 30
0.0
  3
*D6
  1

  0
LINE
  5
63A
330
46E
100
AcDbEntity
  8
KOTY
370
    -2
100
AcDbLine
 10
-35.55709357282569
 20
-254.7126875793523
 30
0.0
 11
-35.55709357282569
 21
-308.6036950635644
 31
0.0
  0
LINE
  5
63B
330
46E
100
AcDbEntity
  8
KOTY
370
    -2
100
AcDbLine
 10
131.4429064271743
 20
-254.7126875793523
 30
0.0
 11
131.4429064271743
 21
-308.6036950635644
 31
0.0
  0
LINE
  5
63C
330
46E
100
AcDbEntity
  8
KOTY
370
    -2
100
AcDbLine
 10
-32.55709357282569
 20
-307.6036950635645
 30
0.0
 11
128.4429064271743
 21
-307.6036950635645
 31
0.0
  0
SOLID
  5
63D
330
46E
100
AcDbEntity
  8
KOTY
100
AcDbTrace
 10
-32.55709357282569
 20
-307.1036950635644
 30
0.0
 11
-32.55709357282569
 21
-308.1036950635644
 31
0.0
 12
-35.55709357282569
 22
-307.6036950635645
 32
0.0
 13
-35.55709357282569
 23
-307.6036950635645
 33
0.0
  0
SOLID
  5
63E
330
46E
100
AcDbEntity
  8
KOTY
100
AcDbTrace
 10
128.4429064271743
 20
-307.1036950635644
 30
0.0
 11
128.4429064271743
 21
-308.1036950635644
 31
0.0
 12
131.4429064271743
 22
-307.6036950635645
 32
0.0
 13
131.4429064271743
 23
-307.6036950635645
 33
0.0
  0
MTEXT
  5
63F
330
46E
100
AcDbEntity
  8
KOTY
100
AcDbMText
 10
47.9429064271743
 20
-305.1036950635644
 30
0.0
 40
3.0
 41
0.0
 71
     5
 72
     1
  1
\A1;167
  7
SIMPLEX
 73
     1
 44
1.0
  0
POINT
  5
640
330
46E
100
AcDbEntity
  8
Defpoints
 62
     0
100
AcDbPoint
 10
-35.55709357282569
 20
-253.7126875793524
 30
0.0
  0
POINT
  5
641
330
46E
100
AcDbEntity
  8
Defpoints
 62
     0
100
AcDbPoint
 10
131.4429064271743
 20
-253.7126875793524
 30
0.0
  0
POINT
  5
642
330
46E
100
AcDbEntity
  8
Defpoints
 62
     0
100
AcDbPoint
 10
131.4429064271743
 20
-307.6036950635645
 30
0.0
  0
ENDBLK
  5
479
330
46E
100
AcDbEntity
  8
0
100
AcDbBlockEnd
  0
BLOCK
  5
4A0
330
496
100
AcDbEntity
  8
0
100
AcDbBlockBegin
  2
*D7
 70
     1
 10
0.0
 20
0.0
 30
0.0
  3
*D7
  1

  0
LINE
  5
65E
330
496
100
AcDbEntity
  8
KOTY
370
    -2
100
AcDbLine
 10
132.4429064271743
 20
-253.7126875793524
 30
0.0
 11
145.1662334242771
 21
-253.7126875793524
 31
0.0
  0
LINE
  5
65F
330
496
100
AcDbEntity
  8
KOTY
370
    -2
100
AcDbLine
 10
132.4429064271743
 20
-229.7126875793523
 30
0.0
 11
145.1662334242771
 21
-229.7126875793523
 31
0.0
  0
LINE
  5
660
330
496
100
AcDbEntity
  8
KOTY
370
    -2
100
AcDbLine
 10
144.1662334242771
 20
-250.7126875793523
 30
0.0
 11
144.1662334242771
 21
-232.7126875793524
 31
0.0
  0
SOLID
  5
661
330
496
100
AcDbEntity
  8
KOTY
100
AcDbTrace
 10
143.6662334242771
 20
-250.7126875793523
 30
0.0
 11
144.6662334242771
 21
-250.7126875793523
 31
0.0
 12
144.1662334242771
 22
-253.7126875793524
 32
0.0
 13
144.1662334242771
 23
-253.7126875793524
 33
0.0
  0
SOLID
  5
662
330
496
100
AcDbEntity
  8
KOTY
100
AcDbTrace
 10
143.6662334242771
 20
-232.7126875793524
 30
0.0
 11
144.6662334242771
 21
-232.7126875793524
 31
0.0
 12
144.1662334242771
 22
-229.7126875793523
 32
0.0
 13
144.1662334242771
 23
-229.7126875793523
 33
0.0
  0
MTEXT
  5
663
330
496
100
AcDbEntity
  8
KOTY
100
AcDbMText
 10
141.6662334242771
 20
-241.7126875793524
 30
0.0
 40
3.0
 41
0.0
 71
     5
 72
     1
  1
\A1;24
  7
SIMPLEX
 11
0.0000000000000001
 21
1.0
 31
0.0
 73
     1
 44
1.0
  0
POINT
  5
664
330
496
100
AcDbEntity
  8
Defpoints
 62
     0
100
AcDbPoint
 10
131.4429064271743
 20
-253.7126875793524
 30
0.0
  0
POINT
  5
665
330
496
100
AcDbEntity
  8
Defpoints
 62
     0
100
AcDbPoint
 10
131.4429064271743
 20
-229.7126875793523
 30
0.0
  0
POINT
  5
666
330
496
100
AcDbEntity
  8
Defpoints
 62
     0
100
AcDbPoint
 10
144.1662334242771
 20
-229.7126875793523
 30
0.0
  0
ENDBLK
  5
4A1
330
496
100
AcDbEntity
  8
0
100
AcDbBlockEnd
  0
BLOCK
  5
4FF
330
4F5
100
AcDbEntity
  8
0
 62
     5
100
AcDbBlockBegin
  2
*D8
 70
     1
 10
0.0
 20
0.0
 30
0.0
  3
*D8
  1

  0
LINE
  5
679
330
4F5
100
AcDbEntity
  8
KOTY
370
    -2
100
AcDbLine
 10
-35.28731500176081
 20
-194.7126872382851
 30
0.0
 11
-35.28731500176081
 21
-181.6998292622965
 31
0.0
  0
LINE
  5
67A
330
4F5
100
AcDbEntity
  8
KOTY
370
    -2
100
AcDbLine
 10
131.4429064271743
 20
-194.7126872382851
 30
0.0
 11
131.4429064271743
 21
-181.6998292622965
 31
0.0
  0
LINE
  5
67B
330
4F5
100
AcDbEntity
  8
KOTY
370
    -2
100
AcDbLine
 10
-32.28731500176081
 20
-182.6998292622965
 30
0.0
 11
128.4429064271743
 21
-182.6998292622965
 31
0.0
  0
SOLID
  5
67C
330
4F5
100
AcDbEntity
  8
KOTY
100
AcDbTrace
 10
-32.28731500176081
 20
-182.1998292622965
 30
0.0
 11
-32.28731500176081
 21
-183.1998292622965
 31
0.0
 12
-35.28731500176081
 22
-182.6998292622965
 32
0.0
 13
-35.28731500176081
 23
-182.6998292622965
 33
0.0
  0
SOLID
  5
67D
330
4F5
100
AcDbEntity
  8
KOTY
100
AcDbTrace
 10
128.4429064271743
 20
-182.1998292622965
 30
0.0
 11
128.4429064271743
 21
-183.1998292622965
 31
0.0
 12
131.4429064271743
 22
-182.6998292622965
 32
0.0
 13
131.4429064271743
 23
-182.6998292622965
 33
0.0
  0
MTEXT
  5
67E
330
4F5
100
AcDbEntity
  8
KOTY
100
AcDbMText
 10
48.07779571270675
 20
-180.1998292622965
 30
0.0
 40
3.0
 41
0.0
 71
     5
 72
     1
  1
\A1;167
  7
SIMPLEX
 73
     1
 44
1.0
  0
POINT
  5
67F
330
4F5
100
AcDbEntity
  8
Defpoints
 62
     0
100
AcDbPoint
 10
-35.28731500176081
 20
-195.712687238285
 30
0.0
  0
POINT
  5
680
330
4F5
100
AcDbEntity
  8
Defpoints
 62
     0
100
AcDbPoint
 10
131.4429064271743
 20
-195.712687238285
 30
0.0
  0
POINT
  5
681
330
4F5
100
AcDbEntity
  8
Defpoints
 62
     0
100
AcDbPoint
 10
131.4429064271743
 20
-182.6998292622965
 30
0.0
  0
ENDBLK
  5
500
330
4F5
100
AcDbEntity
  8
0
 62
     5
100
AcDbBlockEnd
  0
BLOCK
  5
50C
330
502
100
AcDbEntity
  8
0
 62
     5
100
AcDbBlockBegin
  2
*D9
 70
     1
 10
0.0
 20
0.0
 30
0.0
  3
*D9
  1

  0
LINE
  5
655
330
502
100
AcDbEntity
  8
KOTY
370
    -2
100
AcDbLine
 10
-36.28731500176082
 20
-195.712687238285
 30
0.0
 11
-45.96216116524349
 21
-195.712687238285
 31
0.0
  0
LINE
  5
656
330
502
100
AcDbEntity
  8
KOTY
370
    -2
100
AcDbLine
 10
-36.55709357282569
 20
-287.7126879204197
 30
0.0
 11
-45.96216116524352
 21
-287.7126879204197
 31
0.0
  0
LINE
  5
657
330
502
100
AcDbEntity
  8
KOTY
370
    -2
100
AcDbLine
 10
-44.96216116524349
 20
-198.7126872382851
 30
0.0
 11
-44.96216116524351
 21
-284.7126879204197
 31
0.0
  0
SOLID
  5
658
330
502
100
AcDbEntity
  8
KOTY
100
AcDbTrace
 10
-45.46216116524349
 20
-198.7126872382851
 30
0.0
 11
-44.46216116524349
 21
-198.7126872382851
 31
0.0
 12
-44.96216116524349
 22
-195.712687238285
 32
0.0
 13
-44.96216116524349
 23
-195.712687238285
 33
0.0
  0
SOLID
  5
659
330
502
100
AcDbEntity
  8
KOTY
100
AcDbTrace
 10
-45.46216116524351
 20
-284.7126879204197
 30
0.0
 11
-44.46216116524351
 21
-284.7126879204197
 31
0.0
 12
-44.96216116524351
 22
-287.7126879204197
 32
0.0
 13
-44.96216116524351
 23
-287.7126879204197
 33
0.0
  0
MTEXT
  5
65A
330
502
100
AcDbEntity
  8
KOTY
100
AcDbMText
 10
-47.46216116524347
 20
-241.7126875793524
 30
0.0
 40
3.0
 41
0.0
 71
     5
 72
     1
  1
\A1;92
  7
SIMPLEX
 11
0.0000000000000001
 21
1.0
 31
0.0
 73
     1
 44
1.0
  0
POINT
  5
65B
330
502
100
AcDbEntity
  8
Defpoints
 62
     0
100
AcDbPoint
 10
-35.28731500176081
 20
-195.712687238285
 30
0.0
  0
POINT
  5
65C
330
502
100
AcDbEntity
  8
Defpoints
 62
     0
100
AcDbPoint
 10
-35.55709357282569
 20
-287.7126879204197
 30
0.0
  0
POINT
  5
65D
330
502
100
AcDbEntity
  8
Defpoints
 62
     0
100
AcDbPoint
 10
-44.96216116524351
 20
-287.7126879204197
 30
0.0
  0
ENDBLK
  5
50D
330
502
100
AcDbEntity
  8
0
 62
     5
100
AcDbBlockEnd
  0
ENDSEC
  0
SECTION
  2
ENTITIES
  0
LWPOLYLINE
  5
127
102
{ACAD_REACTORS
330
24B
330
524
102
}
330
2
100
AcDbEntity
  8
KRABICKA
100
AcDbPolyline
 90
        4
 70
     1
 43
0.0
 10
-39.05709357282569
 20
-148.5693594738603
 10
134.9429064271743
 20
-148.5693594738603
 10
134.9429064271743
 20
-43.5693587917257
 10
-39.05709357282569
 20
-43.5693587917257
  0
LWPOLYLINE
  5
1B0
102
{ACAD_REACTORS
330
524
102
}
330
2
100
AcDbEntity
  8
KRABICKA
100
AcDbPolyline
 90
        8
 70
     1
 43
0.0
 10
-17.05709357282569
 20
-99.56935921130813
 10
40.94290642717431
 20
-99.56935921130813
 42
0.4142135623730949
 10
41.9429064271743
 20
-98.56935921130812
 10
41.9429064271743
 20
-78.56935921130812
 42
0.414213562373095
 10
40.94290642717431
 20
-77.56935921130812
 10
-17.05709357282569
 20
-77.56935921130812
 42
0.414213562373095
 10
-18.05709357282569
 20
-78.56935921130812
 10
-18.05709357282569
 20
-98.56935921130812
 42
0.4142135623730947
  0
SPLINE
  5
1B1
102
{ACAD_REACTORS
330
25F
330
311
102
}
330
2
100
AcDbEntity
  8
STITEK_M
 62
   140
100
AcDbSpline
210
0.0
220
0.0
230
1.0
 70
     8
 71
     3
 72
    12
 73
     8
 74
     0
 42
0.0000000001
 43
0.0000000001
 40
0.4006010253017096
 40
0.4006010253017096
 40
0.4006010253017096
 40
0.4006010253017096
 40
1.886914172991343
 40
4.187508216921948
 40
6.254214697398234
 40
7.246499280566171
 40
7.868099571073646
 40
7.868099571073646
 40
7.868099571073646
 40
7.868099571073646
 10
108.8540481134683
 20
-87.91992391240219
 30
0.0
 10
108.9623705443226
 20
-87.42868022802397
 30
0.0
 10
109.2972490406615
 20
-86.18939859408058
 30
0.0
 10
109.7598060909584
 20
-84.26889743745201
 30
0.0
 10
110.3385068720525
 20
-82.52783588353318
 30
0.0
 10
110.8297371398294
 20
-81.41360880728361
 30
0.0
 10
111.3009246801638
 20
-80.9927674022588
 30
0.0
 10
111.5149497429075
 20
-80.9927674022588
 30
0.0
  0
SPLINE
  5
1B2
102
{ACAD_REACTORS
330
25F
330
311
102
}
330
2
100
AcDbEntity
  8
STITEK_M
 62
   140
100
AcDbSpline
210
0.0
220
0.0
230
1.0
 70
     8
 71
     3
 72
    12
 73
     8
 74
     0
 42
0.0000000001
 43
0.0000000001
 40
0.0
 40
0.0
 40
0.0
 40
0.0
 40
0.4509390039324724
 40
0.9739654757330896
 40
2.138180424947111
 40
3.412469817593391
 40
4.062188806131675
 40
4.062188806131675
 40
4.062188806131675
 40
4.062188806131675
 10
111.5195167460693
 20
-85.52397676482602
 30
0.0
 10
111.3668911987896
 20
-85.52397676482602
 30
0.0
 10
111.037938817601
 20
-85.63870484441613
 30
0.0
 10
110.5021892206935
 20
-86.13412809416459
 30
0.0
 10
109.9351808898176
 20
-86.97241327161137
 30
0.0
 10
109.4950189028151
 20
-87.92002074293705
 30
0.0
 10
109.1957168072827
 20
-88.49933778824507
 30
0.0
 10
109.1061423441275
 20
-88.82042581533076
 30
0.0
  0
SPLINE
  5
1B3
102
{ACAD_REACTORS
330
25F
330
311
102
}
330
2
100
AcDbEntity
  8
STITEK_M
 62
   140
100
AcDbSpline
210
0.0
220
0.0
230
1.0
 70
     8
 71
     3
 72
    12
 73
     8
 74
     0
 42
0.0000000001
 43
0.0000000001
 40
0.5049886091787702
 40
0.5049886091787702
 40
0.5049886091787702
 40
0.5049886091787702
 40
1.886914172991343
 40
4.187508216921948
 40
6.254214697398234
 40
7.246499280566171
 40
7.868099571073646
 40
7.868099571073646
 40
7.868099571073646
 40
7.868099571073646
 10
114.1536257540323
 20
-87.81616044944909
 30
0.0
 10
114.050023687421
 20
-87.36002591152411
 30
0.0
 10
113.7253314418502
 20
-86.15482091968877
 30
0.0
 10
113.2710231786428
 20
-84.26856809012852
 30
0.0
 10
112.6923223975487
 20
-82.52750653620969
 30
0.0
 10
112.2010921297718
 20
-81.41327945996014
 30
0.0
 10
111.7299045894375
 20
-80.99243805493532
 30
0.0
 10
111.5149497429075
 20
-80.9927674022588
 30
0.0
  0
LINE
  5
1B4
102
{ACAD_REACTORS
330
25F
330
311
102
}
330
2
100
AcDbEntity
  8
STITEK_M
 62
   140
100
AcDbLine
 10
108.3582658596775
 20
-88.31829313238987
 30
0.0
 11
41.9429064271743
 21
-88.31829313238987
 31
0.0
  0
LINE
  5
1B5
102
{ACAD_REACTORS
330
25F
330
311
102
}
330
2
100
AcDbEntity
  8
STITEK_M
 62
   140
100
AcDbLine
 10
109.1061423441275
 20
-88.82042581533065
 30
0.0
 11
41.9429064271743
 21
-88.82042581533065
 31
0.0
  0
SPLINE
  5
1B6
102
{ACAD_REACTORS
330
25F
330
311
102
}
330
2
100
AcDbEntity
  8
STITEK_M
 62
   140
100
AcDbSpline
210
0.0
220
0.0
230
1.0
 70
     8
 71
     3
 72
    11
 73
     7
 74
     0
 42
0.0000000001
 43
0.0000000001
 40
0.0
 40
0.0
 40
0.0
 40
0.0
 40
0.4509390039324451
 40
0.9739654757330622
 40
2.138180424947054
 40
3.074563571698976
 40
3.074563571698976
 40
3.074563571698976
 40
3.074563571698976
 10
111.5195167460693
 20
-85.52397676482602
 30
0.0
 10
111.6721422933491
 20
-85.52397676482602
 30
0.0
 10
112.0012727378492
 20
-85.63861070614363
 30
0.0
 10
112.535724627014
 20
-86.13472002627887
 30
0.0
 10
113.048266645634
 20
-86.87195053062945
 30
0.0
 10
113.3375492588021
 20
-87.5224621331503
 30
0.0
 10
113.457596665586
 20
-87.81616044945057
 30
0.0
  0
LINE
  5
1B7
102
{ACAD_REACTORS
330
25F
330
311
102
}
330
2
100
AcDbEntity
  8
STITEK_M
 62
   140
100
AcDbLine
 10
134.9429064271743
 20
-88.31796378505979
 30
0.0
 11
118.9456378987816
 21
-88.31796378506593
 31
0.0
  0
LINE
  5
1B8
102
{ACAD_REACTORS
330
25F
330
311
102
}
330
2
100
AcDbEntity
  8
STITEK_M
 62
   140
100
AcDbLine
 10
134.9429064271743
 20
-88.82009646800057
 30
0.0
 11
119.6935143832332
 21
-88.82009646800057
 31
0.0
  0
SPLINE
  5
1B9
102
{ACAD_REACTORS
330
25F
330
311
102
}
330
2
100
AcDbEntity
  8
STITEK_M
 62
   140
100
AcDbSpline
210
0.0
220
0.0
230
1.0
 70
     8
 71
     3
 72
    12
 73
     8
 74
     0
 42
0.0000000001
 43
0.0000000001
 40
0.0
 40
0.0
 40
0.0
 40
0.0
 40
0.4509390039324724
 40
0.9739654757330896
 40
2.138180424947111
 40
3.412469817593391
 40
4.062188806131675
 40
4.062188806131675
 40
4.062188806131675
 40
4.062188806131675
 10
116.5322634968398
 20
-91.61441283557101
 30
0.0
 10
116.6848890441195
 20
-91.61441283557101
 30
0.0
 10
117.0138414253082
 20
-91.4996847559809
 30
0.0
 10
117.5495910222156
 20
-91.00426150623244
 30
0.0
 10
118.1165993530916
 20
-90.16597632878566
 30
0.0
 10
118.5567613400941
 20
-89.21836885745998
 30
0.0
 10
118.8560634356264
 20
-88.63905181215196
 30
0.0
 10
118.9456378987816
 20
-88.31796378506593
 30
0.0
  0
SPLINE
  5
1BA
102
{ACAD_REACTORS
330
25F
330
311
102
}
330
2
100
AcDbEntity
  8
STITEK_M
 62
   140
100
AcDbSpline
210
0.0
220
0.0
230
1.0
 70
     8
 71
     3
 72
    11
 73
     7
 74
     0
 42
0.0000000001
 43
0.0000000001
 40
0.0
 40
0.0
 40
0.0
 40
0.0
 40
0.4509390039324451
 40
0.9739654757330622
 40
2.138180424947054
 40
3.093041743144067
 40
3.093041743144067
 40
3.093041743144067
 40
3.093041743144067
 10
116.5322634968398
 20
-91.61441283557101
 30
0.0
 10
116.37963794956
 20
-91.61441283557101
 30
0.0
 10
116.0506855683714
 20
-91.4996847559809
 30
0.0
 10
115.5149359714642
 20
-91.00426150623244
 30
0.0
 10
115.0090846538774
 20
-90.25639302100321
 30
0.0
 10
114.6934725523052
 20
-89.61276701841271
 30
0.0
 10
114.5512150147461
 20
-89.32255849827166
 30
0.0
  0
SPLINE
  5
1BB
102
{ACAD_REACTORS
330
25F
330
311
102
}
330
2
100
AcDbEntity
  8
STITEK_M
 62
   140
100
AcDbSpline
210
0.0
220
0.0
230
1.0
 70
     8
 71
     3
 72
     8
 73
     4
 74
     2
 42
0.0000000001
 43
0.0000000001
 44
0.0000000001
 12
0.3267506579664738
 22
-0.9451105795188606
 32
0.0
 13
0.2328642856621481
 23
-0.9725092413252728
 33
0.0
 40
0.0
 40
0.0
 40
0.0
 40
0.0
 40
1.584871307985715
 40
1.584871307985715
 40
1.584871307985715
 40
1.584871307985715
 10
113.457596665586
 20
-87.81616044945057
 30
0.0
 10
113.6302159131448
 20
-88.3154533295683
 30
0.0
 10
113.822667739713
 20
-88.81023402196431
 30
0.0
 10
113.9456877147132
 20
-89.32400135307345
 30
0.0
 11
113.457596665586
 21
-87.81616044945057
 31
0.0
 11
113.9456877147132
 21
-89.32400135307345
 31
0.0
  0
SPLINE
  5
1BC
102
{ACAD_REACTORS
330
25F
330
311
102
}
330
2
100
AcDbEntity
  8
STITEK_M
 62
   140
100
AcDbSpline
210
0.0
220
0.0
230
1.0
 70
     8
 71
     3
 72
     8
 73
     4
 74
     2
 42
0.0000000001
 43
0.0000000001
 44
0.0000000001
 12
0.2230587088083721
 22
-0.9748050125151911
 32
0.0
 13
0.2965411704230216
 23
-0.9550200700739983
 33
0.0
 40
0.0
 40
0.0
 40
0.0
 40
0.0
 40
1.557983408682985
 40
1.557983408682985
 40
1.557983408682985
 40
1.557983408682985
 10
114.1536257540323
 20
-87.81616044944909
 30
0.0
 10
114.2694663431941
 20
-88.32240379484899
 30
0.0
 10
114.3972129402426
 20
-88.82659002356014
 30
0.0
 10
114.5512150147461
 20
-89.32255849827166
 30
0.0
 11
114.1536257540323
 21
-87.81616044944909
 31
0.0
 11
114.5512150147461
 21
-89.32255849827166
 31
0.0
  0
ARC
  5
1BD
102
{ACAD_REACTORS
330
25F
330
311
102
}
330
2
100
AcDbEntity
  8
STITEK_M
 62
   140
100
AcDbCircle
 10
108.3582658596775
 20
-87.81060069744208
 30
0.0
 40
0.5076924349479077
100
AcDbArc
 50
269.9999999999804
 51
347.5649032471634
  0
ARC
  5
1BE
102
{ACAD_REACTORS
330
25F
330
311
102
}
330
2
100
AcDbEntity
  8
STITEK_M
 62
   140
100
AcDbCircle
 10
119.6935143832332
 20
-89.32778890294846
 30
0.0
 40
0.5076924349479077
100
AcDbArc
 50
90.0
 51
167.5649032471768
  0
SPLINE
  5
1BF
102
{ACAD_REACTORS
330
25F
330
311
102
}
330
2
100
AcDbEntity
  8
STITEK_M
 62
   140
100
AcDbSpline
210
0.0
220
0.0
230
1.0
 70
     8
 71
     3
 72
    12
 73
     8
 74
     0
 42
0.0000000001
 43
0.0000000001
 40
0.5049886091787702
 40
0.5049886091787702
 40
0.5049886091787702
 40
0.5049886091787702
 40
1.886914172991343
 40
4.187508216921948
 40
6.254214697398234
 40
7.246499280566171
 40
7.868099571073646
 40
7.868099571073646
 40
7.868099571073646
 40
7.868099571073646
 10
119.1977321294422
 20
-89.21846568798846
 30
0.0
 10
119.0941300628309
 20
-89.67460022591344
 30
0.0
 10
118.7694378172601
 20
-90.87980521774879
 30
0.0
 10
118.3151295540527
 20
-92.76605804730904
 30
0.0
 10
117.7364287729584
 20
-94.50711960122786
 30
0.0
 10
117.2451985051817
 20
-95.62134667747741
 30
0.0
 10
116.7740109648474
 20
-96.04218808250223
 30
0.0
 10
116.5590561183174
 20
-96.04185873517876
 30
0.0
  0
SPLINE
  5
1C0
102
{ACAD_REACTORS
330
25F
330
311
102
}
330
2
100
AcDbEntity
  8
STITEK_M
 62
   140
100
AcDbSpline
210
0.0
220
0.0
230
1.0
 70
     8
 71
     3
 72
    12
 73
     8
 74
     0
 42
0.0000000001
 43
0.0000000001
 40
0.4006010253017096
 40
0.4006010253017096
 40
0.4006010253017096
 40
0.4006010253017096
 40
1.886914172991343
 40
4.187508216921948
 40
6.254214697398234
 40
7.246499280566171
 40
7.868099571073646
 40
7.868099571073646
 40
7.868099571073646
 40
7.868099571073646
 10
113.9456877147132
 20
-89.32400135307345
 30
0.0
 10
114.0064769197325
 20
-89.60594590941358
 30
0.0
 10
114.3413554160712
 20
-90.84522754335697
 30
0.0
 10
114.8039124663683
 20
-92.76572869998554
 30
0.0
 10
115.3826132474624
 20
-94.50679025390437
 30
0.0
 10
115.8738435152393
 20
-95.62101733015394
 30
0.0
 10
116.3450310555737
 20
-96.04185873517876
 30
0.0
 10
116.5590561183174
 20
-96.04185873517876
 30
0.0
  0
TEXT
  5
1C1
330
2
100
AcDbEntity
  8
STITEK_M
 62
     7
100
AcDbText
 10
119.7095997580398
 20
-87.31796378506592
 30
0.0
 40
2.700000000000001
  1
MIDAM
 41
1.297985526408022
  7
a
 72
     5
 11
134.424035680138
 21
-87.31796378506592
 31
0.0
100
AcDbText
  0
LINE
  5
1C2
102
{ACAD_REACTORS
330
25F
330
311
102
}
330
2
100
AcDbEntity
  8
STITEK_M
 62
   140
100
AcDbLine
 10
134.9429064271743
 20
-88.31796378505979
 30
0.0
 11
134.9429064271743
 21
-88.82009646800057
 31
0.0
  0
LINE
  5
1C3
102
{ACAD_REACTORS
330
25F
330
311
102
}
330
2
100
AcDbEntity
  8
STITEK_M
 62
   140
100
AcDbLine
 10
41.9429064271743
 20
-88.31829313238987
 30
0.0
 11
41.9429064271743
 21
-88.82042581533076
 31
0.0
  0
LINE
  5
1C5
102
{ACAD_REACTORS
330
24B
330
311
102
}
330
2
100
AcDbEntity
  8
STITEK_M
 62
   140
100
AcDbLine
 10
-18.05709357282569
 20
-88.82042581533076
 30
0.0
 11
-39.05709357282569
 21
-88.82042581533076
 31
0.0
  0
LINE
  5
1C6
102
{ACAD_REACTORS
330
24B
330
311
102
}
330
2
100
AcDbEntity
  8
STITEK_M
 62
   140
100
AcDbLine
 10
-18.05709357282569
 20
-88.31829313238987
 30
0.0
 11
-39.05709357282569
 21
-88.31829313238987
 31
0.0
  0
LINE
  5
1C7
102
{ACAD_REACTORS
330
24B
330
311
102
}
330
2
100
AcDbEntity
  8
STITEK_M
 62
   140
100
AcDbLine
 10
-18.05709357282569
 20
-88.31829313238987
 30
0.0
 11
-18.05709357282569
 21
-88.82042581533076
 31
0.0
  0
TEXT
  5
1C8
330
2
100
AcDbEntity
  8
STITEK_M
 62
     7
100
AcDbText
 10
-17.46576965139456
 20
-76.11933508547898
 30
0.0
 40
1.7
  1
MIDAM TERMINAL 010
 41
1.291451626700122
  7
a
 72
     5
 11
13.03423034860543
 21
-76.11933508547898
 31
0.0
100
AcDbText
  0
LINE
  5
1C9
102
{ACAD_REACTORS
330
2A1
330
31C
102
}
330
2
100
AcDbEntity
  8
STITEK_M
 62
   140
100
AcDbLine
 10
-34.55709357282569
 20
-141.0693594738603
 30
0.0
 11
-30.62931924388777
 21
-134.2662547754749
 31
0.0
  0
ARC
  5
1CA
102
{ACAD_REACTORS
330
2A1
330
31C
102
}
330
2
100
AcDbEntity
  8
STITEK_M
 62
   140
100
AcDbCircle
 10
-28.8812495869887
 20
-135.2755032624479
 30
0.0
 40
2.018496973946109
100
AcDbArc
 50
30.00000000000125
 51
149.9999999999987
  0
LINE
  5
1CB
102
{ACAD_REACTORS
330
2A1
330
31C
102
}
330
2
100
AcDbEntity
  8
STITEK_M
 62
   140
100
AcDbLine
 10
-29.73293755866291
 20
-141.0693594738603
 30
0.0
 11
-25.64303412967058
 21
-141.0693594738603
 31
0.0
  0
LINE
  5
1CC
102
{ACAD_REACTORS
330
2A1
330
31C
102
}
330
2
100
AcDbEntity
  8
STITEK_M
 62
   140
100
AcDbLine
 10
-29.73293755866291
 20
-141.0693594738603
 30
0.0
 11
-25.80516322972533
 21
-134.2662547754749
 31
0.0
  0
ARC
  5
1CD
102
{ACAD_REACTORS
330
2A1
330
31C
102
}
330
2
100
AcDbEntity
  8
STITEK_M
 62
   140
100
AcDbCircle
 10
-24.05709357282586
 20
-135.2755032624479
 30
0.0
 40
2.018496973946109
100
AcDbArc
 50
30.00000000000125
 51
149.9999999999987
  0
LINE
  5
1CE
102
{ACAD_REACTORS
330
2A1
330
31C
102
}
330
2
100
AcDbEntity
  8
STITEK_M
 62
   140
100
AcDbLine
 10
-24.90878154450053
 20
-141.0693594738603
 30
0.0
 11
-20.81887811550774
 21
-141.0693594738603
 31
0.0
  0
LINE
  5
1CF
102
{ACAD_REACTORS
330
2A1
330
31C
102
}
330
2
100
AcDbEntity
  8
STITEK_M
 62
   140
100
AcDbLine
 10
-24.90878154450053
 20
-141.0693594738603
 30
0.0
 11
-20.98100721556255
 21
-134.2662547754749
 31
0.0
  0
LINE
  5
1D0
102
{ACAD_REACTORS
330
2A1
330
31C
102
}
330
2
100
AcDbEntity
  8
STITEK_M
 62
   140
100
AcDbLine
 10
-13.55709357282563
 20
-141.0693594738603
 30
0.0
 11
-16.82085955158186
 21
-135.4163509746402
 31
0.0
  0
ARC
  5
1D1
102
{ACAD_REACTORS
330
2A1
330
31C
102
}
330
2
100
AcDbEntity
  8
STITEK_M
 62
   140
100
AcDbCircle
 10
-19.23293755866308
 20
-135.2755032624479
 30
0.0
 40
2.018496973946109
100
AcDbArc
 50
30.00000000000125
 51
149.9999999999987
  0
LINE
  5
1D2
102
{ACAD_REACTORS
330
2A1
330
31C
102
}
330
2
100
AcDbEntity
  8
STITEK_M
 62
   140
100
AcDbLine
 10
-20.08462553033769
 20
-141.0693594738603
 30
0.0
 11
-13.55709357282563
 21
-141.0693594738603
 31
0.0
  0
LINE
  5
1D3
102
{ACAD_REACTORS
330
2A1
330
31C
102
}
330
2
100
AcDbEntity
  8
STITEK_M
 62
   140
100
AcDbLine
 10
-20.08462553033769
 20
-141.0693594738603
 30
0.0
 11
-16.82085955158186
 21
-135.4163509746402
 31
0.0
  0
LINE
  5
1D4
102
{ACAD_REACTORS
330
2A1
330
31C
102
}
330
2
100
AcDbEntity
  8
STITEK_M
 62
   140
100
AcDbLine
 10
-30.46719014383336
 20
-141.0693594738603
 30
0.0
 11
-26.83629787249214
 21
-134.7804695830884
 31
0.0
  0
LINE
  5
1D5
102
{ACAD_REACTORS
330
2A1
330
31C
102
}
330
2
100
AcDbEntity
  8
STITEK_M
 62
   140
100
AcDbLine
 10
-25.64303412967058
 20
-141.0693594738603
 30
0.0
 11
-22.0121418583297
 21
-134.7804695830884
 31
0.0
  0
LINE
  5
1D6
102
{ACAD_REACTORS
330
2A1
330
31C
102
}
330
2
100
AcDbEntity
  8
STITEK_M
 62
   140
100
AcDbLine
 10
-20.81887811550774
 20
-141.0693594738603
 30
0.0
 11
-17.18798584416691
 21
-134.7804695830884
 31
0.0
  0
LINE
  5
1D7
102
{ACAD_REACTORS
330
2A1
330
31C
102
}
330
2
100
AcDbEntity
  8
STITEK_M
 62
   140
100
AcDbLine
 10
-17.18798584416691
 20
-134.7804695830884
 30
0.0
 11
-17.48486790176355
 21
-134.2662547754749
 31
0.0
  0
LINE
  5
1D8
102
{ACAD_REACTORS
330
2A1
330
31C
102
}
330
2
100
AcDbEntity
  8
STITEK_M
 62
   140
100
AcDbLine
 10
-22.0121418583297
 20
-134.7804695830884
 30
0.0
 11
-22.30902391592639
 21
-134.2662547754749
 31
0.0
  0
LINE
  5
1D9
102
{ACAD_REACTORS
330
2A1
330
31C
102
}
330
2
100
AcDbEntity
  8
STITEK_M
 62
   140
100
AcDbLine
 10
-26.83629787249214
 20
-134.7804695830884
 30
0.0
 11
-27.13317993008923
 21
-134.2662547754749
 31
0.0
  0
CIRCLE
  5
1DA
102
{ACAD_REACTORS
330
2A3
330
31C
102
}
330
2
100
AcDbEntity
  8
STITEK_M
 62
   140
100
AcDbCircle
 10
-13.43763456191504
 20
-133.6935538835261
 30
0.0
 40
1.84583626281194
  0
TEXT
  5
1DB
102
{ACAD_REACTORS
330
31C
102
}
330
2
100
AcDbEntity
  8
STITEK_M
 62
   140
100
AcDbText
 10
-14.38502582094999
 20
-134.6188245994882
 30
0.0
 40
1.85054143192417
  1
R
  7
FUTURA_XXL
 72
     4
 11
-13.43763456191504
 21
-133.6935538835261
 31
0.0
100
AcDbText
  0
CIRCLE
  5
1E1
102
{ACAD_REACTORS
330
2A3
330
31C
102
}
330
2
100
AcDbEntity
  8
STITEK_M
 62
   140
100
AcDbCircle
 10
-13.43763456191504
 20
-133.6935538835261
 30
0.0
 40
1.720338798736442
  0
LWPOLYLINE
  5
1E4
102
{ACAD_REACTORS
330
2A1
330
31C
102
}
330
2
100
AcDbEntity
  8
STITEK_M
 62
   140
100
AcDbPolyline
 90
        2
 70
     0
 43
0.0
 10
-30.46719014383342
 20
-141.0693594738603
 10
-34.55709357282575
 20
-141.0693594738603
  0
LWPOLYLINE
  5
1EF
102
{ACAD_REACTORS
330
345
330
524
102
}
330
2
100
AcDbEntity
  8
KRABICKA
100
AcDbPolyline
 90
        8
 70
     1
 43
0.0
 10
53.44290642717431
 20
-86.81935947386028
 10
60.44290642717431
 20
-86.81935947386028
 42
0.4142135623730951
 10
61.44290642717431
 20
-85.81935947386027
 10
61.44290642717431
 20
-78.81935947386027
 42
0.414213562373095
 10
60.44290642717431
 20
-77.81935947386028
 10
53.44290642717431
 20
-77.81935947386028
 42
0.414213562373095
 10
52.4429064271743
 20
-78.81935947386027
 10
52.4429064271743
 20
-85.81935947386027
 42
0.4142135623730951
  0
LWPOLYLINE
  5
1F0
102
{ACAD_REACTORS
330
345
330
524
102
}
330
2
100
AcDbEntity
  8
KRABICKA
100
AcDbPolyline
 90
        8
 70
     1
 43
0.0
 10
66.1929064271743
 20
-86.81935947386028
 10
73.1929064271743
 20
-86.81935947386028
 42
0.4142135623730951
 10
74.19290642717431
 20
-85.81935947386027
 10
74.19290642717431
 20
-78.81935947386027
 42
0.414213562373095
 10
73.1929064271743
 20
-77.81935947386028
 10
66.1929064271743
 20
-77.81935947386028
 42
0.414213562373095
 10
65.19290642717431
 20
-78.81935947386027
 10
65.19290642717431
 20
-85.81935947386027
 42
0.4142135623730951
  0
LWPOLYLINE
  5
1F1
102
{ACAD_REACTORS
330
345
330
524
102
}
330
2
100
AcDbEntity
  8
KRABICKA
100
AcDbPolyline
 90
        8
 70
     1
 43
0.0
 10
78.94290642717431
 20
-86.81935947386028
 10
85.9429064271743
 20
-86.81935947386028
 42
0.4142135623730951
 10
86.94290642717431
 20
-85.81935947386027
 10
86.94290642717431
 20
-78.81935947386027
 42
0.414213562373095
 10
85.9429064271743
 20
-77.81935947386028
 10
78.94290642717431
 20
-77.81935947386028
 42
0.414213562373095
 10
77.94290642717431
 20
-78.81935947386027
 10
77.94290642717431
 20
-85.81935947386027
 42
0.4142135623730951
  0
LWPOLYLINE
  5
1F2
102
{ACAD_REACTORS
330
345
330
524
102
}
330
2
100
AcDbEntity
  8
KRABICKA
100
AcDbPolyline
 90
        8
 70
     1
 43
0.0
 10
53.44290642717431
 20
-99.31935947386026
 10
60.44290642717431
 20
-99.31935947386026
 42
0.4142135623730951
 10
61.44290642717431
 20
-98.31935947386027
 10
61.44290642717431
 20
-91.31935947386025
 42
0.414213562373095
 10
60.44290642717431
 20
-90.31935947386026
 10
53.44290642717431
 20
-90.31935947386026
 42
0.414213562373095
 10
52.4429064271743
 20
-91.31935947386025
 10
52.4429064271743
 20
-98.31935947386027
 42
0.4142135623730951
  0
LWPOLYLINE
  5
1F3
102
{ACAD_REACTORS
330
345
330
524
102
}
330
2
100
AcDbEntity
  8
KRABICKA
100
AcDbPolyline
 90
        8
 70
     1
 43
0.0
 10
66.1929064271743
 20
-99.31935947386026
 10
73.1929064271743
 20
-99.31935947386026
 42
0.4142135623730951
 10
74.19290642717431
 20
-98.31935947386027
 10
74.19290642717431
 20
-91.31935947386025
 42
0.414213562373095
 10
73.1929064271743
 20
-90.31935947386026
 10
66.1929064271743
 20
-90.31935947386026
 42
0.414213562373095
 10
65.19290642717431
 20
-91.31935947386025
 10
65.19290642717431
 20
-98.31935947386027
 42
0.4142135623730951
  0
LWPOLYLINE
  5
1F4
102
{ACAD_REACTORS
330
345
330
524
102
}
330
2
100
AcDbEntity
  8
KRABICKA
100
AcDbPolyline
 90
        8
 70
     1
 43
0.0
 10
78.94290642717431
 20
-99.31935947386026
 10
85.9429064271743
 20
-99.31935947386026
 42
0.4142135623730951
 10
86.94290642717431
 20
-98.31935947386027
 10
86.94290642717431
 20
-91.31935947386025
 42
0.414213562373095
 10
85.9429064271743
 20
-90.31935947386026
 10
78.94290642717431
 20
-90.31935947386026
 42
0.414213562373095
 10
77.94290642717431
 20
-91.31935947386025
 10
77.94290642717431
 20
-98.31935947386027
 42
0.4142135623730951
  0
HATCH
  5
24B
102
{ACAD_REACTORS
330
311
102
}
330
2
100
AcDbEntity
  8
STITEK_M
 62
   140
100
AcDbHatch
 10
0.0
 20
0.0
 30
0.0
210
0.0
220
0.0
230
1.0
  2
SOLID
 70
     1
 71
     1
 91
        1
 92
        7
 72
     0
 73
     1
 93
        4
 10
-39.05709357282569
 20
-88.31829313238989
 10
-39.05709357282569
 20
-88.82042581533076
 10
-18.05709357282569
 20
-88.82042581533076
 10
-18.05709357282569
 20
-88.31829313238987
 97
        4
330
1C6
330
127
330
1C5
330
1C7
 75
     0
 76
     1
 47
0.0676160315243877
 98
        1
 10
-29.52336460552123
 20
-88.56010564092366
  0
HATCH
  5
25F
102
{ACAD_REACTORS
330
311
102
}
330
2
100
AcDbEntity
  8
STITEK_M
 62
   140
100
AcDbHatch
 10
0.0
 20
0.0
 30
0.0
210
0.0
220
0.0
230
1.0
  2
SOLID
 70
     1
 71
     1
 91
        1
 92
        5
 93
       18
 72
     4
 94
        3
 73
     0
 74
     0
 95
       12
 96
        8
 40
0.4006010253017101
 40
0.4006010253017101
 40
0.4006010253017101
 40
0.4006010253017101
 40
1.022201315809185
 40
2.014485898977122
 40
4.081192379453408
 40
6.381786423384014
 40
7.868099571073647
 40
7.868099571073647
 40
7.868099571073647
 40
7.868099571073647
 10
111.5149497429075
 20
-80.9927674022588
 10
111.3009246801638
 20
-80.9927674022588
 10
110.8297371398294
 20
-81.41360880728361
 10
110.3385068720525
 20
-82.52783588353318
 10
109.7598060909584
 20
-84.26889743745201
 10
109.2972490406615
 20
-86.18939859408058
 10
108.9623705443226
 20
-87.42868022802397
 10
108.8540481134683
 20
-87.91992391240219
 72
     2
 10
108.3582658596775
 20
-87.81060069744198
 40
0.5076924349479084
 50
12.43509675193654
 51
90.00000000000163
 73
     0
 72
     1
 10
108.3582658596775
 20
-88.31829313238987
 11
41.9429064271743
 21
-88.31829313238987
 72
     1
 10
41.9429064271743
 20
-88.31829313238987
 11
41.9429064271743
 21
-88.82042581533063
 72
     1
 10
41.9429064271743
 20
-88.82042581533063
 11
109.1061423441275
 21
-88.82042581533063
 72
     4
 94
        3
 73
     0
 74
     0
 95
       12
 96
        8
 40
0.0
 40
0.0
 40
0.0
 40
0.0
 40
0.6497189885382846
 40
1.924008381184564
 40
3.088223330398586
 40
3.611249802199203
 40
4.062188806131675
 40
4.062188806131675
 40
4.062188806131675
 40
4.062188806131675
 10
109.1061423441275
 20
-88.82042581533076
 10
109.1957168072827
 20
-88.49933778824507
 10
109.4950189028151
 20
-87.92002074293705
 10
109.9351808898176
 20
-86.97241327161137
 10
110.5021892206935
 20
-86.13412809416459
 10
111.037938817601
 20
-85.63870484441613
 10
111.3668911987896
 20
-85.52397676482602
 10
111.5195167460693
 20
-85.52397676482602
 72
     4
 94
        3
 73
     0
 74
     0
 95
       11
 96
        7
 40
0.0
 40
0.0
 40
0.0
 40
0.0
 40
0.4509390039324451
 40
0.9739654757330622
 40
2.138180424947054
 40
3.074563571698976
 40
3.074563571698976
 40
3.074563571698976
 40
3.074563571698976
 10
111.5195167460693
 20
-85.52397676482602
 10
111.6721422933491
 20
-85.52397676482602
 10
112.0012727378492
 20
-85.63861070614363
 10
112.535724627014
 20
-86.13472002627887
 10
113.048266645634
 20
-86.87195053062945
 10
113.3375492588021
 20
-87.5224621331503
 10
113.457596665586
 20
-87.81616044945057
 72
     4
 94
        3
 73
     0
 74
     0
 95
        8
 96
        4
 40
0.0
 40
0.0
 40
0.0
 40
0.0
 40
1.584871307985715
 40
1.584871307985715
 40
1.584871307985715
 40
1.584871307985715
 10
113.457596665586
 20
-87.81616044945057
 10
113.6302159131448
 20
-88.3154533295683
 10
113.822667739713
 20
-88.81023402196431
 10
113.9456877147132
 20
-89.32400135307345
 72
     4
 94
        3
 73
     0
 74
     0
 95
       12
 96
        8
 40
0.4006010253017096
 40
0.4006010253017096
 40
0.4006010253017096
 40
0.4006010253017096
 40
1.886914172991343
 40
4.187508216921948
 40
6.254214697398234
 40
7.246499280566171
 40
7.868099571073646
 40
7.868099571073646
 40
7.868099571073646
 40
7.868099571073646
 10
113.9456877147132
 20
-89.32400135307345
 10
114.0064769197325
 20
-89.60594590941358
 10
114.3413554160712
 20
-90.84522754335697
 10
114.8039124663683
 20
-92.76572869998554
 10
115.3826132474624
 20
-94.50679025390437
 10
115.8738435152393
 20
-95.62101733015394
 10
116.3450310555737
 20
-96.04185873517876
 10
116.5590561183174
 20
-96.04185873517876
 72
     4
 94
        3
 73
     0
 74
     0
 95
       12
 96
        8
 40
0.5049886091787697
 40
0.5049886091787697
 40
0.5049886091787697
 40
0.5049886091787697
 40
1.126588899686245
 40
2.118873482854182
 40
4.185579963330468
 40
6.486174007261073
 40
7.868099571073646
 40
7.868099571073646
 40
7.868099571073646
 40
7.868099571073646
 10
116.5590561183174
 20
-96.04185873517876
 10
116.7740109648474
 20
-96.04218808250223
 10
117.2451985051817
 20
-95.62134667747741
 10
117.7364287729584
 20
-94.50711960122786
 10
118.3151295540527
 20
-92.76605804730904
 10
118.7694378172601
 20
-90.87980521774879
 10
119.0941300628309
 20
-89.67460022591344
 10
119.1977321294422
 20
-89.21846568798846
 72
     2
 10
119.6935143832332
 20
-89.32778890294848
 40
0.5076924349479104
 50
192.4350967527692
 51
270.0000000000016
 73
     0
 72
     1
 10
119.6935143832332
 20
-88.82009646800057
 11
134.9429064271743
 21
-88.82009646800057
 72
     1
 10
134.9429064271743
 20
-88.82009646800057
 11
134.9429064271743
 21
-88.31796378505977
 72
     1
 10
134.9429064271743
 20
-88.31796378505977
 11
118.9456378987816
 21
-88.31796378506592
 72
     4
 94
        3
 73
     0
 74
     0
 95
       12
 96
        8
 40
0.0
 40
0.0
 40
0.0
 40
0.0
 40
0.6497189885382846
 40
1.924008381184564
 40
3.088223330398586
 40
3.611249802199203
 40
4.062188806131675
 40
4.062188806131675
 40
4.062188806131675
 40
4.062188806131675
 10
118.9456378987816
 20
-88.31796378506593
 10
118.8560634356264
 20
-88.63905181215196
 10
118.5567613400941
 20
-89.21836885745998
 10
118.1165993530916
 20
-90.16597632878566
 10
117.5495910222156
 20
-91.00426150623244
 10
117.0138414253082
 20
-91.4996847559809
 10
116.6848890441195
 20
-91.61441283557101
 10
116.5322634968398
 20
-91.61441283557101
 72
     4
 94
        3
 73
     0
 74
     0
 95
       11
 96
        7
 40
0.0
 40
0.0
 40
0.0
 40
0.0
 40
0.4509390039324451
 40
0.9739654757330622
 40
2.138180424947054
 40
3.093041743144067
 40
3.093041743144067
 40
3.093041743144067
 40
3.093041743144067
 10
116.5322634968398
 20
-91.61441283557101
 10
116.37963794956
 20
-91.61441283557101
 10
116.0506855683714
 20
-91.4996847559809
 10
115.5149359714642
 20
-91.00426150623244
 10
115.0090846538774
 20
-90.25639302100321
 10
114.6934725523052
 20
-89.61276701841271
 10
114.5512150147461
 20
-89.32255849827166
 72
     4
 94
        3
 73
     0
 74
     0
 95
        8
 96
        4
 40
0.0
 40
0.0
 40
0.0
 40
0.0
 40
1.557983408682985
 40
1.557983408682985
 40
1.557983408682985
 40
1.557983408682985
 10
114.5512150147461
 20
-89.32255849827166
 10
114.3972129402426
 20
-88.82659002356014
 10
114.2694663431941
 20
-88.32240379484899
 10
114.1536257540323
 20
-87.81616044944909
 72
     4
 94
        3
 73
     0
 74
     0
 95
       12
 96
        8
 40
0.5049886091787702
 40
0.5049886091787702
 40
0.5049886091787702
 40
0.5049886091787702
 40
1.886914172991343
 40
4.187508216921948
 40
6.254214697398234
 40
7.246499280566171
 40
7.868099571073646
 40
7.868099571073646
 40
7.868099571073646
 40
7.868099571073646
 10
114.1536257540323
 20
-87.81616044944909
 10
114.050023687421
 20
-87.36002591152411
 10
113.7253314418502
 20
-86.15482091968877
 10
113.2710231786428
 20
-84.26856809012852
 10
112.6923223975487
 20
-82.52750653620969
 10
112.2010921297718
 20
-81.41327945996014
 10
111.7299045894375
 20
-80.99243805493532
 10
111.5149497429075
 20
-80.9927674022588
 97
       18
330
1B3
330
1B1
330
1BD
330
1B4
330
1C3
330
1B5
330
1B2
330
1B6
330
1BB
330
1C0
330
1BF
330
1BE
330
1B8
330
1C2
330
1B7
330
1B9
330
1BA
330
1BC
 75
     0
 76
     1
 47
0.0765740298611203
 98
        1
 10
111.3263717170457
 20
-83.52763825837882
  0
HATCH
  5
2A1
102
{ACAD_REACTORS
330
31C
102
}
330
2
100
AcDbEntity
  8
STITEK_M
 62
   140
100
AcDbHatch
 10
0.0
 20
0.0
 30
0.0
210
0.0
220
0.0
230
1.0
  2
SOLID
 70
     1
 71
     1
 91
        4
 92
        7
 72
     1
 73
     1
 93
        5
 10
-34.55709357282571
 20
-141.0693594738603
 42
0.0
 10
-30.46719014383338
 20
-141.0693594738603
 42
0.0
 10
-26.83629787249213
 20
-134.7804695830884
 42
0.0
 10
-27.13317993008956
 20
-134.2662547754743
 42
0.577350269189468
 10
-30.62931924388778
 20
-134.2662547754749
 42
0.0
 97
        5
330
1D9
330
1CA
330
1C9
330
1E4
330
1D4
 92
        7
 72
     1
 73
     1
 93
        5
 10
-22.0121418583297
 20
-134.7804695830884
 42
0.0
 10
-22.3090239159261
 20
-134.2662547754754
 42
0.577350269189785
 10
-25.80516322972528
 20
-134.2662547754748
 42
0.0
 10
-29.73293755866293
 20
-141.0693594738603
 42
0.0
 10
-25.64303412967056
 20
-141.0693594738603
 42
0.0
 97
        5
330
1D8
330
1CD
330
1CC
330
1CB
330
1D5
 92
        7
 72
     1
 73
     1
 93
        5
 10
-24.90878154450051
 20
-141.0693594738603
 42
0.0
 10
-20.81887811550775
 20
-141.0693594738603
 42
0.0
 10
-17.18798584416691
 20
-134.7804695830884
 42
0.0
 10
-17.48486790176323
 20
-134.2662547754755
 42
0.5773502691897909
 10
-20.98100721556242
 20
-134.2662547754747
 42
0.0
 97
        5
330
1D7
330
1D1
330
1CF
330
1CE
330
1D6
 92
        7
 72
     0
 73
     1
 93
        3
 10
-20.08462553033768
 20
-141.0693594738603
 10
-13.55709357282563
 20
-141.0693594738603
 10
-16.82085955158185
 20
-135.4163509746402
 97
        3
330
1D3
330
1D2
330
1D0
 75
     0
 76
     1
 47
0.020508054967684
 98
       10
 10
-30.20391412989329
 20
-136.8852725736237
 10
-23.49507561668724
 20
-137.1518771570899
 10
-20.80743628681648
 20
-137.1723853477717
 10
-17.68895580863864
 20
-138.115756432943
 10
-14.05756703974248
 20
-135.3881841308382
 10
-14.05756703974248
 20
-135.3881841308382
 10
-28.37795993397503
 20
-134.895991345269
 10
-22.57184012592688
 20
-135.6958050956679
 10
-19.94575115286443
 20
-136.0034260604977
 10
-17.4837936272861
 20
-137.9516928028854
  0
HATCH
  5
2A3
102
{ACAD_REACTORS
330
31C
102
}
330
2
100
AcDbEntity
  8
STITEK_M
 62
   140
100
AcDbHatch
 10
0.0
 20
0.0
 30
0.0
210
0.0
220
0.0
230
1.0
  2
SOLID
 70
     1
 71
     1
 91
        2
 92
       16
 93
        1
 72
     2
 10
-13.43763456191504
 20
-133.6935538835261
 40
1.720338798736442
 50
0.0
 51
360.0
 73
     1
 97
        1
330
1E1
 92
        1
 93
        1
 72
     2
 10
-13.43763456191504
 20
-133.6935538835261
 40
1.84583626281194
 50
0.0
 51
360.0
 73
     1
 97
        1
330
1DA
 75
     0
 76
     1
 98
        1
 10
231.5512852835895
 20
0.0
  0
HATCH
  5
345
330
2
100
AcDbEntity
  8
TLACITKA
 62
   255
100
AcDbHatch
 10
0.0
 20
0.0
 30
0.0
210
0.0
220
0.0
230
1.0
  2
SOLID
 70
     1
 71
     1
 91
        6
 92
        1
 93
        8
 72
     1
 10
78.94290642717431
 20
-99.31935947386026
 11
85.9429064271743
 21
-99.31935947386026
 72
     2
 10
85.9429064271743
 20
-98.31935947386027
 40
1.0
 50
270.0
 51
360.0
 73
     1
 72
     1
 10
86.94290642717431
 20
-98.31935947386027
 11
86.94290642717431
 21
-91.31935947386025
 72
     2
 10
85.9429064271743
 20
-91.31935947386025
 40
1.0
 50
0.0
 51
90.0
 73
     1
 72
     1
 10
85.9429064271743
 20
-90.31935947386026
 11
78.94290642717431
 21
-90.31935947386026
 72
     2
 10
78.94290642717431
 20
-91.31935947386025
 40
1.0
 50
90.0
 51
180.0
 73
     1
 72
     1
 10
77.94290642717431
 20
-91.31935947386025
 11
77.94290642717431
 21
-98.31935947386027
 72
     2
 10
78.94290642717431
 20
-98.31935947386027
 40
1.0
 50
180.0
 51
270.0
 73
     1
 97
        1
330
1F4
 92
        1
 93
        8
 72
     1
 10
66.1929064271743
 20
-99.31935947386026
 11
73.1929064271743
 21
-99.31935947386026
 72
     2
 10
73.1929064271743
 20
-98.31935947386027
 40
1.0
 50
270.0
 51
360.0
 73
     1
 72
     1
 10
74.19290642717431
 20
-98.31935947386027
 11
74.19290642717431
 21
-91.31935947386025
 72
     2
 10
73.1929064271743
 20
-91.31935947386025
 40
1.0
 50
0.0
 51
90.0
 73
     1
 72
     1
 10
73.1929064271743
 20
-90.31935947386026
 11
66.1929064271743
 21
-90.31935947386026
 72
     2
 10
66.1929064271743
 20
-91.31935947386025
 40
1.0
 50
90.0
 51
180.0
 73
     1
 72
     1
 10
65.19290642717431
 20
-91.31935947386025
 11
65.19290642717431
 21
-98.31935947386027
 72
     2
 10
66.1929064271743
 20
-98.31935947386027
 40
1.0
 50
180.0
 51
270.0
 73
     1
 97
        1
330
1F3
 92
        1
 93
        8
 72
     1
 10
53.44290642717431
 20
-99.31935947386026
 11
60.44290642717431
 21
-99.31935947386026
 72
     2
 10
60.44290642717431
 20
-98.31935947386027
 40
1.0
 50
270.0
 51
360.0
 73
     1
 72
     1
 10
61.44290642717431
 20
-98.31935947386027
 11
61.44290642717431
 21
-91.31935947386025
 72
     2
 10
60.44290642717431
 20
-91.31935947386025
 40
1.0
 50
0.0
 51
90.0
 73
     1
 72
     1
 10
60.44290642717431
 20
-90.31935947386026
 11
53.44290642717431
 21
-90.31935947386026
 72
     2
 10
53.44290642717431
 20
-91.31935947386025
 40
1.0
 50
90.0
 51
180.0
 73
     1
 72
     1
 10
52.4429064271743
 20
-91.31935947386025
 11
52.4429064271743
 21
-98.31935947386027
 72
     2
 10
53.44290642717431
 20
-98.31935947386027
 40
1.0
 50
180.0
 51
270.0
 73
     1
 97
        1
330
1F2
 92
        1
 93
        8
 72
     1
 10
78.94290642717431
 20
-86.81935947386028
 11
85.9429064271743
 21
-86.81935947386028
 72
     2
 10
85.9429064271743
 20
-85.81935947386027
 40
1.0
 50
270.0
 51
360.0
 73
     1
 72
     1
 10
86.94290642717431
 20
-85.81935947386027
 11
86.94290642717431
 21
-78.81935947386027
 72
     2
 10
85.9429064271743
 20
-78.81935947386027
 40
1.0
 50
0.0
 51
90.0
 73
     1
 72
     1
 10
85.9429064271743
 20
-77.81935947386028
 11
78.94290642717431
 21
-77.81935947386028
 72
     2
 10
78.94290642717431
 20
-78.81935947386027
 40
1.0
 50
90.0
 51
180.0
 73
     1
 72
     1
 10
77.94290642717431
 20
-78.81935947386027
 11
77.94290642717431
 21
-85.81935947386027
 72
     2
 10
78.94290642717431
 20
-85.81935947386027
 40
1.0
 50
180.0
 51
270.0
 73
     1
 97
        1
330
1F1
 92
        1
 93
        8
 72
     1
 10
66.1929064271743
 20
-86.81935947386028
 11
73.1929064271743
 21
-86.81935947386028
 72
     2
 10
73.1929064271743
 20
-85.81935947386027
 40
1.0
 50
270.0
 51
360.0
 73
     1
 72
     1
 10
74.19290642717431
 20
-85.81935947386027
 11
74.19290642717431
 21
-78.81935947386027
 72
     2
 10
73.1929064271743
 20
-78.81935947386027
 40
1.0
 50
0.0
 51
90.0
 73
     1
 72
     1
 10
73.1929064271743
 20
-77.81935947386028
 11
66.1929064271743
 21
-77.81935947386028
 72
     2
 10
66.1929064271743
 20
-78.81935947386027
 40
1.0
 50
90.0
 51
180.0
 73
     1
 72
     1
 10
65.19290642717431
 20
-78.81935947386027
 11
65.19290642717431
 21
-85.81935947386027
 72
     2
 10
66.1929064271743
 20
-85.81935947386027
 40
1.0
 50
180.0
 51
270.0
 73
     1
 97
        1
330
1F0
 92
        1
 93
        8
 72
     1
 10
53.44290642717431
 20
-86.81935947386028
 11
60.44290642717431
 21
-86.81935947386028
 72
     2
 10
60.44290642717431
 20
-85.81935947386027
 40
1.0
 50
270.0
 51
360.0
 73
     1
 72
     1
 10
61.44290642717431
 20
-85.81935947386027
 11
61.44290642717431
 21
-78.81935947386027
 72
     2
 10
60.44290642717431
 20
-78.81935947386027
 40
1.0
 50
0.0
 51
90.0
 73
     1
 72
     1
 10
60.44290642717431
 20
-77.81935947386028
 11
53.44290642717431
 21
-77.81935947386028
 72
     2
 10
53.44290642717431
 20
-78.81935947386027
 40
1.0
 50
90.0
 51
180.0
 73
     1
 72
     1
 10
52.4429064271743
 20
-78.81935947386027
 11
52.4429064271743
 21
-85.81935947386027
 72
     2
 10
53.44290642717431
 20
-85.81935947386027
 40
1.0
 50
180.0
 51
270.0
 73
     1
 97
        1
330
1EF
 75
     0
 76
     1
 98
        1
 10
231.5512852835895
 20
0.0
  0
LINE
  5
34A
102
{ACAD_REACTORS
330
354
330
3B0
102
}
330
2
100
AcDbEntity
  8
KRABICKA
100
AcDbLine
 10
69.3929064271743
 20
-83.57924375223996
 30
0.0
 11
69.3929064271743
 21
-85.74357527981634
 31
0.0
  0
LINE
  5
34B
102
{ACAD_REACTORS
330
354
330
3B0
102
}
330
2
100
AcDbEntity
  8
KRABICKA
100
AcDbLine
 10
69.99290642717432
 20
-83.57924375223996
 30
0.0
 11
69.99290642717432
 21
-85.74357527981634
 31
0.0
  0
LINE
  5
34C
102
{ACAD_REACTORS
330
354
330
3B0
102
}
330
2
100
AcDbEntity
  8
KRABICKA
100
AcDbLine
 10
69.3929064271743
 20
-85.74357527981634
 30
0.0
 11
69.99290642717432
 21
-85.74357527981634
 31
0.0
  0
LINE
  5
34D
102
{ACAD_REACTORS
330
354
330
3B0
102
}
330
2
100
AcDbEntity
  8
KRABICKA
100
AcDbLine
 10
69.69290642717431
 20
-78.89514366790421
 30
0.0
 11
67.69290642717431
 21
-83.8951436679042
 31
0.0
  0
LINE
  5
34F
102
{ACAD_REACTORS
330
354
330
3B0
102
}
330
2
100
AcDbEntity
  8
KRABICKA
100
AcDbLine
 10
69.69290642717431
 20
-78.89514366790421
 30
0.0
 11
71.69290642717431
 21
-83.8951436679042
 31
0.0
  0
ARC
  5
352
102
{ACAD_REACTORS
330
354
330
3B0
102
}
330
2
100
AcDbEntity
  8
KRABICKA
100
AcDbCircle
 10
69.69290642717431
 20
-89.92586266203788
 30
0.0
 40
6.353705343042331
100
AcDbArc
 50
71.65265089794781
 51
87.29368516362102
  0
ARC
  5
353
102
{ACAD_REACTORS
330
354
330
3B0
102
}
330
2
100
AcDbEntity
  8
KRABICKA
100
AcDbCircle
 10
69.69290642717431
 20
-89.92586266203788
 30
0.0
 40
6.353705343042331
100
AcDbArc
 50
92.70631483637872
 51
108.347349102052
  0
LINE
  5
356
102
{ACAD_REACTORS
330
35D
330
3B0
102
}
330
2
100
AcDbEntity
  8
KRABICKA
100
AcDbLine
 10
69.3929064271743
 20
-93.55947519548056
 30
0.0
 11
69.3929064271743
 21
-91.39514366790418
 31
0.0
  0
LINE
  5
357
102
{ACAD_REACTORS
330
35D
330
3B0
102
}
330
2
100
AcDbEntity
  8
KRABICKA
100
AcDbLine
 10
69.99290642717432
 20
-93.55947519548056
 30
0.0
 11
69.99290642717432
 21
-91.39514366790418
 31
0.0
  0
LINE
  5
358
102
{ACAD_REACTORS
330
35D
330
3B0
102
}
330
2
100
AcDbEntity
  8
KRABICKA
100
AcDbLine
 10
69.3929064271743
 20
-91.39514366790418
 30
0.0
 11
69.99290642717432
 21
-91.39514366790418
 31
0.0
  0
LINE
  5
359
102
{ACAD_REACTORS
330
35D
330
3B0
102
}
330
2
100
AcDbEntity
  8
KRABICKA
100
AcDbLine
 10
69.69290642717431
 20
-98.24357527981632
 30
0.0
 11
67.69290642717431
 21
-93.2435752798163
 31
0.0
  0
LINE
  5
35A
102
{ACAD_REACTORS
330
35D
330
3B0
102
}
330
2
100
AcDbEntity
  8
KRABICKA
100
AcDbLine
 10
69.69290642717431
 20
-98.24357527981632
 30
0.0
 11
71.69290642717431
 21
-93.2435752798163
 31
0.0
  0
ARC
  5
35B
102
{ACAD_REACTORS
330
35D
330
3B0
102
}
330
2
100
AcDbEntity
  8
KRABICKA
100
AcDbCircle
 10
69.69290642717431
 20
-87.21285628568264
 30
0.0
 40
6.353705343042331
100
AcDbArc
 50
272.7063148363789
 51
288.3473491020522
  0
ARC
  5
35C
102
{ACAD_REACTORS
330
35D
330
3B0
102
}
330
2
100
AcDbEntity
  8
KRABICKA
100
AcDbCircle
 10
69.69290642717431
 20
-87.21285628568264
 30
0.0
 40
6.353705343042331
100
AcDbArc
 50
251.6526508979479
 51
267.2936851636212
  0
LINE
  5
35E
102
{ACAD_REACTORS
330
365
330
3B0
102
}
330
2
100
AcDbEntity
  8
KRABICKA
100
AcDbLine
 10
58.20279070555404
 20
-94.51935947386026
 30
0.0
 11
60.3671222331304
 21
-94.51935947386026
 31
0.0
  0
LINE
  5
35F
102
{ACAD_REACTORS
330
365
330
3B0
102
}
330
2
100
AcDbEntity
  8
KRABICKA
100
AcDbLine
 10
58.20279070555404
 20
-95.11935947386026
 30
0.0
 11
60.3671222331304
 21
-95.11935947386026
 31
0.0
  0
LINE
  5
360
102
{ACAD_REACTORS
330
365
330
3B0
102
}
330
2
100
AcDbEntity
  8
KRABICKA
100
AcDbLine
 10
60.3671222331304
 20
-94.51935947386026
 30
0.0
 11
60.3671222331304
 21
-95.11935947386026
 31
0.0
  0
LINE
  5
361
102
{ACAD_REACTORS
330
365
330
3B0
102
}
330
2
100
AcDbEntity
  8
KRABICKA
100
AcDbLine
 10
53.51869062121827
 20
-94.81935947386025
 30
0.0
 11
58.51869062121827
 21
-92.81935947386026
 31
0.0
  0
LINE
  5
362
102
{ACAD_REACTORS
330
365
330
3B0
102
}
330
2
100
AcDbEntity
  8
KRABICKA
100
AcDbLine
 10
53.51869062121827
 20
-94.81935947386025
 30
0.0
 11
58.51869062121827
 21
-96.81935947386026
 31
0.0
  0
ARC
  5
363
102
{ACAD_REACTORS
330
365
330
3B0
102
}
330
2
100
AcDbEntity
  8
KRABICKA
100
AcDbCircle
 10
64.54940961535195
 20
-94.81935947386025
 30
0.0
 40
6.353705343042331
100
AcDbArc
 50
182.7063148363789
 51
198.3473491020522
  0
ARC
  5
364
102
{ACAD_REACTORS
330
365
330
3B0
102
}
330
2
100
AcDbEntity
  8
KRABICKA
100
AcDbCircle
 10
64.54940961535195
 20
-94.81935947386025
 30
0.0
 40
6.353705343042331
100
AcDbArc
 50
161.6526508979479
 51
177.2936851636212
  0
LINE
  5
367
102
{ACAD_REACTORS
330
36E
330
3B0
102
}
330
2
100
AcDbEntity
  8
KRABICKA
100
AcDbLine
 10
81.18302214879458
 20
-94.51935947386026
 30
0.0
 11
79.01869062121821
 21
-94.51935947386026
 31
0.0
  0
LINE
  5
368
102
{ACAD_REACTORS
330
36E
330
3B0
102
}
330
2
100
AcDbEntity
  8
KRABICKA
100
AcDbLine
 10
81.18302214879458
 20
-95.11935947386026
 30
0.0
 11
79.01869062121821
 21
-95.11935947386026
 31
0.0
  0
LINE
  5
369
102
{ACAD_REACTORS
330
36E
330
3B0
102
}
330
2
100
AcDbEntity
  8
KRABICKA
100
AcDbLine
 10
79.01869062121821
 20
-94.51935947386026
 30
0.0
 11
79.01869062121821
 21
-95.11935947386026
 31
0.0
  0
LINE
  5
36A
102
{ACAD_REACTORS
330
36E
330
3B0
102
}
330
2
100
AcDbEntity
  8
KRABICKA
100
AcDbLine
 10
85.86712223313034
 20
-94.81935947386025
 30
0.0
 11
80.86712223313034
 21
-92.81935947386026
 31
0.0
  0
LINE
  5
36B
102
{ACAD_REACTORS
330
36E
330
3B0
102
}
330
2
100
AcDbEntity
  8
KRABICKA
100
AcDbLine
 10
85.86712223313034
 20
-94.81935947386025
 30
0.0
 11
80.86712223313034
 21
-96.81935947386026
 31
0.0
  0
ARC
  5
36C
102
{ACAD_REACTORS
330
36E
330
3B0
102
}
330
2
100
AcDbEntity
  8
KRABICKA
100
AcDbCircle
 10
74.83640323899667
 20
-94.81935947386025
 30
0.0
 40
6.353705343042331
100
AcDbArc
 50
341.6526508979478
 51
357.293685163621
  0
ARC
  5
36D
102
{ACAD_REACTORS
330
36E
330
3B0
102
}
330
2
100
AcDbEntity
  8
KRABICKA
100
AcDbCircle
 10
74.83640323899667
 20
-94.81935947386025
 30
0.0
 40
6.353705343042331
100
AcDbArc
 50
2.70631483637873
 51
18.34734910205205
  0
LWPOLYLINE
  5
371
102
{ACAD_REACTORS
330
377
330
3C9
102
}
330
2
100
AcDbEntity
  8
KRABICKA
 62
     1
100
AcDbPolyline
 90
        6
 70
     0
 43
0.0
 10
56.9429064271743
 20
-81.61225269267374
 10
55.38727150856392
 20
-80.05661777406331
 42
0.4142135623730951
 10
54.68016472737736
 20
-80.05661777406331
 10
54.68016472737736
 20
-80.05661777406331
 42
0.4142135623730951
 10
54.68016472737736
 20
-80.76372455524987
 10
56.23579964598775
 20
-82.31935947386027
  0
LWPOLYLINE
  5
374
102
{ACAD_REACTORS
330
377
330
3C9
102
}
330
2
100
AcDbEntity
  8
KRABICKA
 62
     1
100
AcDbPolyline
 90
        6
 70
     0
 43
0.0
 10
56.23579964598775
 20
-82.31935947386027
 10
54.68016472737736
 20
-83.87499439247068
 42
0.4142135623730951
 10
54.68016472737736
 20
-84.58210117365721
 10
54.68016472737736
 20
-84.58210117365721
 42
0.4142135623730951
 10
55.38727150856392
 20
-84.58210117365723
 10
56.9429064271743
 20
-83.02646625504682
  0
LWPOLYLINE
  5
375
102
{ACAD_REACTORS
330
377
330
3C9
102
}
330
2
100
AcDbEntity
  8
KRABICKA
 62
     1
100
AcDbPolyline
 90
        6
 70
     0
 43
0.0
 10
57.65001320836086
 20
-82.31935947386027
 10
59.20564812697126
 20
-80.76372455524987
 42
0.4142135623730951
 10
59.20564812697126
 20
-80.05661777406331
 10
59.20564812697126
 20
-80.05661777406331
 42
0.4142135623730951
 10
58.49854134578473
 20
-80.05661777406331
 10
56.9429064271743
 20
-81.61225269267374
  0
LWPOLYLINE
  5
376
102
{ACAD_REACTORS
330
377
330
3C9
102
}
330
2
100
AcDbEntity
  8
KRABICKA
 62
     1
100
AcDbPolyline
 90
        6
 70
     0
 43
0.0
 10
56.9429064271743
 20
-83.02646625504682
 10
58.4985413457847
 20
-84.58210117365721
 42
0.4142135623730951
 10
59.20564812697126
 20
-84.58210117365721
 10
59.20564812697126
 20
-84.58210117365721
 42
0.4142135623730951
 10
59.20564812697126
 20
-83.87499439247067
 10
57.65001320836086
 20
-82.31935947386027
  0
LINE
  5
37E
102
{ACAD_REACTORS
330
38C
330
3DD
102
}
330
2
100
AcDbEntity
  8
KRABICKA
 62
     3
100
AcDbLine
 10
85.84461588879163
 20
-80.49678452680909
 30
0.0
 11
83.96663556710976
 21
-82.29304454140185
 31
0.0
  0
ARC
  5
37F
102
{ACAD_REACTORS
330
38C
330
3DD
102
}
330
2
100
AcDbEntity
  8
KRABICKA
 62
     3
100
AcDbCircle
 10
74.56459457397284
 20
-71.93423288689413
 30
0.0
 40
13.9894014786263
100
AcDbArc
 50
295.4563087457005
 51
312.2280475176431
  0
ARC
  5
380
102
{ACAD_REACTORS
330
38C
330
3DD
102
}
330
2
100
AcDbEntity
  8
KRABICKA
 62
     3
100
AcDbCircle
 10
80.13804963839282
 20
-83.67441776919191
 30
0.0
 40
0.993531331751353
100
AcDbArc
 50
201.538574918337
 51
296.2551167369468
  0
ARC
  5
381
102
{ACAD_REACTORS
330
38C
330
3DD
102
}
330
2
100
AcDbEntity
  8
KRABICKA
 62
     3
100
AcDbCircle
 10
86.15140894069643
 20
-82.11505708323404
 30
0.0
 40
7.199395688796524
100
AcDbArc
 50
182.5377750701613
 51
195.5013098711403
  0
LINE
  5
382
102
{ACAD_REACTORS
330
38C
330
3DD
102
}
330
2
100
AcDbEntity
  8
KRABICKA
 62
     3
100
AcDbLine
 10
85.27967706971907
 20
-79.90614398671279
 30
0.0
 11
83.40169674803718
 21
-81.70240400130555
 31
0.0
  0
ARC
  5
383
102
{ACAD_REACTORS
330
38C
330
3DD
102
}
330
2
100
AcDbEntity
  8
KRABICKA
 62
     3
100
AcDbCircle
 10
75.03516717355561
 20
-72.81494639930092
 30
0.0
 40
12.20594927814282
100
AcDbArc
 50
296.3463718577056
 51
313.2895212060383
  0
ARC
  5
384
102
{ACAD_REACTORS
330
38C
330
3DD
102
}
330
2
100
AcDbEntity
  8
KRABICKA
 62
     3
100
AcDbCircle
 10
87.42944937765782
 20
-81.88643103752353
 30
0.0
 40
7.672636108742265
100
AcDbArc
 50
183.3010027691644
 51
191.3094796218449
  0
LINE
  5
385
102
{ACAD_REACTORS
330
38C
102
}
330
2
100
AcDbEntity
  8
KRABICKA
 62
     3
100
AcDbLine
 10
79.35978680193727
 20
-81.97239758593388
 30
0.0
 11
79.35978680193727
 21
-81.97239758593388
 31
0.0
  0
LINE
  5
386
102
{ACAD_REACTORS
330
38C
102
}
330
2
100
AcDbEntity
  8
KRABICKA
 62
     3
100
AcDbLine
 10
85.85746674930351
 20
-79.91899484722466
 30
0.0
 11
85.85746674930346
 21
-79.91899484722466
 31
0.0
  0
ARC
  5
387
102
{ACAD_REACTORS
330
38C
330
3DD
102
}
330
2
100
AcDbEntity
  8
KRABICKA
 62
     3
100
AcDbCircle
 10
85.56214647925532
 20
-80.20146425676093
 30
0.0
 40
0.4086600411406624
100
AcDbArc
 50
313.7258708118852
 51
43.72587081188513
  0
ARC
  5
388
102
{ACAD_REACTORS
330
38C
330
3DD
102
}
330
2
100
AcDbEntity
  8
KRABICKA
 62
     3
100
AcDbCircle
 10
85.56214647925534
 20
-80.20146425676093
 30
0.0
 40
0.4086600411406624
100
AcDbArc
 50
43.725870811884
 51
133.7258708118852
  0
ARC
  5
389
102
{ACAD_REACTORS
330
38C
330
3DD
102
}
330
2
100
AcDbEntity
  8
KRABICKA
 62
     3
100
AcDbCircle
 10
79.36430886207779
 20
-82.38103260670078
 30
0.0
 40
0.4086600411406624
100
AcDbArc
 50
7.423478830988199
 51
90.63402393807196
  0
ARC
  5
38A
102
{ACAD_REACTORS
330
38C
330
3DD
102
}
330
2
100
AcDbEntity
  8
KRABICKA
 62
     3
100
AcDbCircle
 10
79.36430886207779
 20
-82.38103260670078
 30
0.0
 40
0.4086600411406624
100
AcDbArc
 50
90.63402393807034
 51
187.4234788309887
  0
ARC
  5
38B
102
{ACAD_REACTORS
330
38C
330
3DD
102
}
330
2
100
AcDbEntity
  8
KRABICKA
 62
     3
100
AcDbCircle
 10
80.35210176765636
 20
-83.31071874883662
 30
0.0
 40
0.4534836130319526
100
AcDbArc
 50
190.2096970255221
 51
282.7424401207258
  0
HATCH
  5
3B0
330
2
100
AcDbEntity
  8
KRABICKA
100
AcDbHatch
 10
0.0
 20
0.0
 30
0.0
210
0.0
220
0.0
230
1.0
  2
SOLID
 70
     1
 71
     1
 91
        4
 92
        7
 72
     1
 73
     1
 93
        7
 10
69.99290642717432
 20
-83.57924375223996
 42
-0.0683530407838759
 10
71.69290642717431
 20
-83.8951436679042
 42
0.0
 10
69.69290642717431
 20
-78.89514366790422
 42
0.0
 10
67.69290642717429
 20
-83.89514366790422
 42
-0.0683530407838769
 10
69.3929064271743
 20
-83.57924375223998
 42
0.0
 10
69.3929064271743
 20
-85.74357527981636
 42
0.0
 10
69.99290642717432
 20
-85.74357527981634
 42
0.0
 97
        7
330
34D
330
353
330
34A
330
34C
330
34B
330
352
330
34F
 92
        7
 72
     1
 73
     1
 93
        7
 10
71.69290642717431
 20
-93.2435752798163
 42
-0.068353040783876
 10
69.99290642717432
 20
-93.55947519548058
 42
0.0
 10
69.99290642717432
 20
-91.39514366790418
 42
0.0
 10
69.3929064271743
 20
-91.39514366790418
 42
0.0
 10
69.3929064271743
 20
-93.55947519548056
 42
-0.0683530407838758
 10
67.69290642717431
 20
-93.2435752798163
 42
0.0
 10
69.69290642717431
 20
-98.24357527981632
 42
0.0
 97
        7
330
35B
330
357
330
358
330
356
330
35C
330
359
330
35A
 92
        7
 72
     1
 73
     1
 93
        7
 10
81.18302214879459
 20
-94.51935947386026
 42
0.0
 10
79.01869062121821
 20
-94.51935947386024
 42
0.0
 10
79.0186906212182
 20
-95.11935947386026
 42
0.0
 10
81.18302214879458
 20
-95.11935947386026
 42
-0.0683530407838771
 10
80.86712223313032
 20
-96.81935947386028
 42
0.0
 10
85.86712223313034
 20
-94.81935947386025
 42
0.0
 10
80.86712223313037
 20
-92.81935947386028
 42
-0.0683530407838756
 97
        7
330
36D
330
367
330
369
330
368
330
36C
330
36B
330
36A
 92
        7
 72
     1
 73
     1
 93
        7
 10
58.51869062121828
 20
-96.81935947386026
 42
-0.0683530407838765
 10
58.20279070555401
 20
-95.11935947386026
 42
0.0
 10
60.3671222331304
 20
-95.11935947386026
 42
0.0
 10
60.36712223313041
 20
-94.51935947386028
 42
0.0
 10
58.202790705554
 20
-94.51935947386026
 42
-0.0683530407838764
 10
58.51869062121826
 20
-92.81935947386026
 42
0.0
 10
53.51869062121829
 20
-94.81935947386025
 42
0.0
 97
        7
330
35E
330
364
330
361
330
362
330
363
330
35F
330
360
 75
     0
 76
     1
 47
0.0701345949131372
 98
        4
 10
69.95709564488288
 20
-82.66260653440303
 10
69.8167698944585
 20
-95.14656391619439
 10
81.95494446231259
 20
-94.72575637253738
 10
56.34550012880367
 20
-95.00629498827493
  0
HATCH
  5
3C9
330
2
100
AcDbEntity
  8
KRABICKA
 62
     1
100
AcDbHatch
 10
0.0
 20
0.0
 30
0.0
210
0.0
220
0.0
230
1.0
  2
SOLID
 70
     1
 71
     1
 91
        1
 92
        7
 72
     1
 73
     1
 93
       16
 10
56.9429064271743
 20
-83.02646625504683
 42
0.0
 10
58.4985413457847
 20
-84.58210117365721
 42
0.4142135623730951
 10
59.20564812697126
 20
-84.58210117365721
 42
0.4142135623730951
 10
59.20564812697126
 20
-83.87499439247067
 42
0.0
 10
57.65001320836085
 20
-82.31935947386027
 42
0.0
 10
59.20564812697126
 20
-80.76372455524987
 42
0.4142135623730951
 10
59.20564812697126
 20
-80.05661777406331
 42
0.4142135623730951
 10
58.49854134578473
 20
-80.05661777406331
 42
0.0
 10
56.9429064271743
 20
-81.61225269267374
 42
0.0
 10
55.38727150856392
 20
-80.05661777406331
 42
0.414213562373101
 10
54.68016472737736
 20
-80.05661777406331
 42
0.4142135623730951
 10
54.68016472737736
 20
-80.76372455524987
 42
0.0
 10
56.23579964598775
 20
-82.31935947386025
 42
0.0
 10
54.68016472737735
 20
-83.87499439247068
 42
0.4142135623730951
 10
54.68016472737736
 20
-84.58210117365721
 42
0.414213562373101
 10
55.38727150856392
 20
-84.58210117365723
 42
0.0
 97
        4
330
375
330
371
330
374
330
376
 75
     0
 76
     1
 47
0.0701345949131372
 98
        1
 10
56.90680313050075
 20
-82.38206791866549
  0
HATCH
  5
3DD
330
2
100
AcDbEntity
  8
KRABICKA
 62
     3
100
AcDbHatch
 10
0.0
 20
0.0
 30
0.0
210
0.0
220
0.0
230
1.0
  2
SOLID
 70
     1
 71
     1
 91
        1
 92
        7
 72
     1
 73
     1
 93
       12
 10
80.4521260775955
 20
-83.75303370981999
 42
-0.4272208922273101
 10
79.90579878504266
 20
-83.3910993123991
 42
-0.0349578018914468
 10
79.76954363771494
 20
-82.32823293019247
 42
0.3799170174688504
 10
79.35978680193726
 20
-81.97239758593388
 42
0.3960837732342081
 10
78.95618491713479
 20
-82.36010714877862
 42
0.0591951792342623
 10
79.21389599670266
 20
-84.03917049875321
 42
0.4296173318469797
 10
80.55061836870676
 20
-84.57823829890939
 42
0.0738472213866772
 10
83.96663556711013
 20
-82.2930445414015
 42
0.0
 10
85.84461588879161
 20
-80.49678452680911
 42
0.4142135623731086
 10
85.85746674930346
 20
-79.91899484722466
 42
0.4142135623730866
 10
85.27967706971905
 20
-79.9061439867128
 42
0.0
 10
83.40366938943645
 20
-81.70051719938982
 42
-0.074036903775527
 97
       12
330
37E
330
387
330
388
330
382
330
383
330
38B
330
384
330
389
330
38A
330
381
330
380
330
37F
 75
     0
 76
     1
 47
0.0701345949131372
 98
        1
 10
82.72673665841626
 20
-82.73274061841346
  0
DIMENSION
  5
3EC
330
2
100
AcDbEntity
  8
KOTY
100
AcDbDimension
  2
*D0
 10
134.9429064271743
 20
-161.6725550114949
 30
0.0
 11
47.9429064271743
 21
-159.1725550114949
 31
0.0
 70
    32
 71
     5
 42
174.0
  3
KOTY
100
AcDbAlignedDimension
 13
-39.05709357282569
 23
-148.5693594738603
 33
0.0
 14
134.9429064271743
 24
-148.5693594738603
 34
0.0
100
AcDbRotatedDimension
1001
ACAD
1000
DSTYLE
1002
{
1070
   177
1070
   256
1070
   176
1070
   256
1070
   178
1070
   256
1070
    40
1040
1.0
1002
}
  0
DIMENSION
  5
40B
330
2
100
AcDbEntity
  8
KOTY
100
AcDbDimension
  2
*D1
 10
150.4955414286437
 20
-148.5693594738603
 30
0.0
 11
147.9955414286437
 21
-96.06935913279301
 31
0.0
 70
    32
 71
     5
 42
105.0000006821346
  3
KOTY
100
AcDbAlignedDimension
 13
134.9429064271743
 23
-43.5693587917257
 33
0.0
 14
134.9429064271743
 24
-148.5693594738603
 34
0.0
 50
90.0
100
AcDbRotatedDimension
1001
ACAD
1000
DSTYLE
1002
{
1070
   177
1070
   256
1070
   176
1070
   256
1070
   178
1070
   256
1070
    40
1040
1.0
1002
}
  0
LWPOLYLINE
  5
419
330
2
100
AcDbEntity
  8
KRABICKA
100
AcDbPolyline
 90
        4
 70
     1
 43
0.0
 10
-39.05709357282569
 20
-294.2126879204197
 10
134.9429064271743
 20
-294.2126879204197
 10
134.9429064271743
 20
-189.2126872382851
 10
-39.05709357282569
 20
-189.2126872382851
  0
DIMENSION
  5
41A
330
2
100
AcDbEntity
  8
KOTY
100
AcDbDimension
  2
*D2
 10
134.9429064271743
 20
-313.8120227835489
 30
0.0
 11
47.9429064271743
 21
-311.3120227835489
 31
0.0
 70
    32
 71
     5
 42
174.0
  3
KOTY
100
AcDbAlignedDimension
 13
-39.05709357282569
 23
-294.2126879204197
 33
0.0
 14
134.9429064271743
 24
-294.2126879204197
 34
0.0
100
AcDbRotatedDimension
1001
ACAD
1000
DSTYLE
1002
{
1070
   177
1070
   256
1070
   176
1070
   256
1070
   178
1070
   256
1070
    40
1040
1.0
1002
}
  0
DIMENSION
  5
41B
330
2
100
AcDbEntity
  8
KOTY
100
AcDbDimension
  2
*D3
 10
157.7936691796148
 20
-294.2126879204197
 30
0.0
 11
155.2936691796149
 21
-241.7126875793524
 31
0.0
 70
    32
 71
     5
 42
105.0000006821346
  3
KOTY
100
AcDbAlignedDimension
 13
134.9429064271743
 23
-189.2126872382851
 33
0.0
 14
134.9429064271743
 24
-294.2126879204197
 34
0.0
 50
90.0
100
AcDbRotatedDimension
1001
ACAD
1000
DSTYLE
1002
{
1070
   177
1070
   256
1070
   176
1070
   256
1070
   178
1070
   256
1070
    40
1040
1.0
1002
}
  0
LWPOLYLINE
  5
447
330
2
100
AcDbEntity
  8
KRABICKA
100
AcDbPolyline
 90
        4
 70
     1
 43
0.0
 10
-32.05709357282569
 20
-286.7126879204197
 10
127.9429064271743
 20
-286.7126879204197
 10
127.9429064271743
 20
-196.712687238285
 10
-32.05709357282569
 20
-196.712687238285
  0
LWPOLYLINE
  5
448
330
2
100
AcDbEntity
  8
KRABICKA
100
AcDbPolyline
 90
        4
 70
     1
 43
0.0
 10
-35.55709357282569
 20
-253.7126875793524
 10
-32.05709357282569
 20
-253.7126875793524
 10
-32.05709357282569
 20
-229.7126875793523
 10
-35.55709357282569
 20
-229.7126875793523
  0
LWPOLYLINE
  5
449
330
2
100
AcDbEntity
  8
KRABICKA
100
AcDbPolyline
 90
        4
 70
     1
 43
0.0
 10
131.4429064271743
 20
-253.7126875793524
 10
127.9429064271743
 20
-253.7126875793524
 10
127.9429064271743
 20
-229.7126875793523
 10
131.4429064271743
 20
-229.7126875793523
  0
DIMENSION
  5
44A
330
2
100
AcDbEntity
  8
KOTY
100
AcDbDimension
  2
*D4
 10
150.828152619192
 20
-286.7126879204198
 30
0.0
 11
148.328152619192
 21
-241.7126875793524
 31
0.0
 70
    32
 71
     5
 42
90.00000068213466
  3
KOTY
100
AcDbAlignedDimension
 13
127.9429064271743
 23
-196.712687238285
 33
0.0
 14
127.9429064271743
 24
-286.7126879204197
 34
0.0
 50
90.0
100
AcDbRotatedDimension
1001
ACAD
1000
DSTYLE
1002
{
1070
   177
1070
   256
1070
   176
1070
   256
1070
   178
1070
   256
1070
    40
1040
1.0
1002
}
  0
DIMENSION
  5
457
330
2
100
AcDbEntity
  8
KOTY
100
AcDbDimension
  2
*D5
 10
-32.05709357282569
 20
-301.0504599947257
 30
0.0
 11
47.9429064271743
 21
-298.5504599947257
 31
0.0
 70
    32
 71
     5
 42
160.0
  3
KOTY
100
AcDbAlignedDimension
 13
127.9429064271743
 23
-286.7126879204197
 33
0.0
 14
-32.05709357282569
 24
-286.7126879204197
 34
0.0
100
AcDbRotatedDimension
1001
ACAD
1000
DSTYLE
1002
{
1070
   177
1070
   256
1070
   176
1070
   256
1070
   178
1070
   256
1070
    40
1040
1.0
1002
}
  0
DIMENSION
  5
46D
330
2
100
AcDbEntity
  8
KOTY
100
AcDbDimension
  2
*D6
 10
131.4429064271743
 20
-307.6036950635645
 30
0.0
 11
47.9429064271743
 21
-305.1036950635644
 31
0.0
 70
    32
 71
     5
 42
167.0
  3
KOTY
100
AcDbAlignedDimension
 13
-35.55709357282569
 23
-253.7126875793524
 33
0.0
 14
131.4429064271743
 24
-253.7126875793524
 34
0.0
100
AcDbRotatedDimension
1001
ACAD
1000
DSTYLE
1002
{
1070
   177
1070
   256
1070
   176
1070
   256
1070
   178
1070
   256
1070
    40
1040
1.0
1002
}
  0
DIMENSION
  5
495
330
2
100
AcDbEntity
  8
KOTY
100
AcDbDimension
  2
*D7
 10
144.1662334242771
 20
-229.7126875793523
 30
0.0
 11
141.6662334242771
 21
-241.7126875793524
 31
0.0
 70
    32
 71
     5
 42
24.0
  3
KOTY
100
AcDbAlignedDimension
 13
131.4429064271743
 23
-253.7126875793524
 33
0.0
 14
131.4429064271743
 24
-229.7126875793523
 34
0.0
 50
90.0
100
AcDbRotatedDimension
1001
ACAD
1000
DSTYLE
1002
{
1070
   177
1070
   256
1070
   176
1070
   256
1070
   178
1070
   256
1070
    40
1040
1.0
1002
}
  0
CIRCLE
  5
4A4
102
{ACAD_REACTORS
330
4AC
102
}
330
2
100
AcDbEntity
  8
KRABICKA
100
AcDbCircle
 10
-24.55709357282569
 20
-204.212687238285
 30
0.0
 40
2.75
  0
LWPOLYLINE
  5
4A5
102
{ACAD_REACTORS
330
4AA
330
4AC
102
}
330
2
100
AcDbEntity
  8
KRABICKA
100
AcDbPolyline
 90
        6
 70
     0
 43
0.0
 10
-24.55709357282569
 20
-203.8237785086324
 10
-25.4126927780614
 20
-202.9681793033967
 42
0.4142135623730951
 10
-25.80160150771401
 20
-202.9681793033967
 10
-25.80160150771401
 20
-202.9681793033967
 42
0.4142135623730951
 10
-25.80160150771401
 20
-203.3570880330493
 10
-24.94600230247829
 20
-204.212687238285
  0
LWPOLYLINE
  5
4A6
102
{ACAD_REACTORS
330
4AA
330
4AC
102
}
330
2
100
AcDbEntity
  8
KRABICKA
100
AcDbPolyline
 90
        6
 70
     0
 43
0.0
 10
-24.94600230247829
 20
-204.212687238285
 10
-25.80160150771401
 20
-205.0682864435208
 42
0.4142135623730951
 10
-25.80160150771401
 20
-205.4571951731734
 10
-25.80160150771401
 20
-205.4571951731734
 42
0.4142135623730951
 10
-25.4126927780614
 20
-205.4571951731734
 10
-24.55709357282569
 20
-204.6015959679376
  0
LWPOLYLINE
  5
4A7
102
{ACAD_REACTORS
330
4AA
330
4AC
102
}
330
2
100
AcDbEntity
  8
KRABICKA
100
AcDbPolyline
 90
        6
 70
     0
 43
0.0
 10
-24.16818484317309
 20
-204.212687238285
 10
-23.31258563793737
 20
-203.3570880330493
 42
0.4142135623730951
 10
-23.31258563793737
 20
-202.9681793033967
 10
-23.31258563793737
 20
-202.9681793033967
 42
0.4142135623730951
 10
-23.70149436758996
 20
-202.9681793033967
 10
-24.55709357282569
 20
-203.8237785086324
  0
LWPOLYLINE
  5
4A8
102
{ACAD_REACTORS
330
4AA
330
4AC
102
}
330
2
100
AcDbEntity
  8
KRABICKA
100
AcDbPolyline
 90
        6
 70
     0
 43
0.0
 10
-24.55709357282569
 20
-204.6015959679376
 10
-23.70149436758997
 20
-205.4571951731734
 42
0.4142135623730951
 10
-23.31258563793737
 20
-205.4571951731734
 10
-23.31258563793737
 20
-205.4571951731734
 42
0.4142135623730951
 10
-23.31258563793737
 20
-205.0682864435208
 10
-24.16818484317309
 20
-204.212687238285
  0
CIRCLE
  5
4AD
102
{ACAD_REACTORS
330
4B2
102
}
330
2
100
AcDbEntity
  8
KRABICKA
100
AcDbCircle
 10
120.4429064271743
 20
-204.212687238285
 30
0.0
 40
2.75
  0
LWPOLYLINE
  5
4AE
102
{ACAD_REACTORS
330
4B2
330
4B3
102
}
330
2
100
AcDbEntity
  8
KRABICKA
100
AcDbPolyline
 90
        6
 70
     0
 43
0.0
 10
120.4429064271743
 20
-203.8237785086324
 10
121.29850563241
 20
-202.9681793033967
 42
-0.4142135623730951
 10
121.6874143620626
 20
-202.9681793033967
 10
121.6874143620626
 20
-202.9681793033967
 42
-0.4142135623730951
 10
121.6874143620626
 20
-203.3570880330493
 10
120.8318151568269
 20
-204.212687238285
  0
LWPOLYLINE
  5
4AF
102
{ACAD_REACTORS
330
4B2
330
4B3
102
}
330
2
100
AcDbEntity
  8
KRABICKA
100
AcDbPolyline
 90
        6
 70
     0
 43
0.0
 10
120.8318151568269
 20
-204.212687238285
 10
121.6874143620626
 20
-205.0682864435208
 42
-0.4142135623730951
 10
121.6874143620626
 20
-205.4571951731734
 10
121.6874143620626
 20
-205.4571951731734
 42
-0.4142135623730951
 10
121.29850563241
 20
-205.4571951731734
 10
120.4429064271743
 20
-204.6015959679376
  0
LWPOLYLINE
  5
4B0
102
{ACAD_REACTORS
330
4B2
330
4B3
102
}
330
2
100
AcDbEntity
  8
KRABICKA
100
AcDbPolyline
 90
        6
 70
     0
 43
0.0
 10
120.0539976975217
 20
-204.212687238285
 10
119.1983984922859
 20
-203.3570880330493
 42
-0.4142135623730951
 10
119.1983984922859
 20
-202.9681793033967
 10
119.1983984922859
 20
-202.9681793033967
 42
-0.4142135623730951
 10
119.5873072219385
 20
-202.9681793033967
 10
120.4429064271743
 20
-203.8237785086324
  0
LWPOLYLINE
  5
4B1
102
{ACAD_REACTORS
330
4B2
330
4B3
102
}
330
2
100
AcDbEntity
  8
KRABICKA
100
AcDbPolyline
 90
        6
 70
     0
 43
0.0
 10
120.4429064271743
 20
-204.6015959679376
 10
119.5873072219385
 20
-205.4571951731734
 42
-0.4142135623730951
 10
119.1983984922859
 20
-205.4571951731734
 10
119.1983984922859
 20
-205.4571951731734
 42
-0.4142135623730951
 10
119.1983984922859
 20
-205.0682864435208
 10
120.0539976975217
 20
-204.212687238285
  0
CIRCLE
  5
4B4
102
{ACAD_REACTORS
330
4BE
102
}
330
2
100
AcDbEntity
  8
KRABICKA
100
AcDbCircle
 10
-24.55709357282569
 20
-279.2126879204197
 30
0.0
 40
2.75
  0
LWPOLYLINE
  5
4B5
102
{ACAD_REACTORS
330
4BE
330
4BF
102
}
330
2
100
AcDbEntity
  8
KRABICKA
100
AcDbPolyline
 90
        6
 70
     0
 43
0.0
 10
-24.55709357282569
 20
-279.6015966500723
 10
-25.4126927780614
 20
-280.457195855308
 42
-0.4142135623730951
 10
-25.80160150771401
 20
-280.457195855308
 10
-25.80160150771401
 20
-280.457195855308
 42
-0.4142135623730951
 10
-25.80160150771401
 20
-280.0682871256554
 10
-24.94600230247829
 20
-279.2126879204197
  0
LWPOLYLINE
  5
4B6
102
{ACAD_REACTORS
330
4BE
330
4BF
102
}
330
2
100
AcDbEntity
  8
KRABICKA
100
AcDbPolyline
 90
        6
 70
     0
 43
0.0
 10
-24.94600230247829
 20
-279.2126879204197
 10
-25.80160150771401
 20
-278.3570887151839
 42
-0.4142135623730951
 10
-25.80160150771401
 20
-277.9681799855314
 10
-25.80160150771401
 20
-277.9681799855314
 42
-0.4142135623730951
 10
-25.4126927780614
 20
-277.9681799855314
 10
-24.55709357282569
 20
-278.8237791907671
  0
LWPOLYLINE
  5
4B7
102
{ACAD_REACTORS
330
4BE
330
4BF
102
}
330
2
100
AcDbEntity
  8
KRABICKA
100
AcDbPolyline
 90
        6
 70
     0
 43
0.0
 10
-24.16818484317309
 20
-279.2126879204197
 10
-23.31258563793737
 20
-280.0682871256554
 42
-0.4142135623730951
 10
-23.31258563793737
 20
-280.457195855308
 10
-23.31258563793737
 20
-280.457195855308
 42
-0.4142135623730951
 10
-23.70149436758996
 20
-280.457195855308
 10
-24.55709357282569
 20
-279.6015966500723
  0
LWPOLYLINE
  5
4B8
102
{ACAD_REACTORS
330
4BE
330
4BF
102
}
330
2
100
AcDbEntity
  8
KRABICKA
100
AcDbPolyline
 90
        6
 70
     0
 43
0.0
 10
-24.55709357282569
 20
-278.8237791907671
 10
-23.70149436758997
 20
-277.9681799855314
 42
-0.4142135623730951
 10
-23.31258563793737
 20
-277.9681799855314
 10
-23.31258563793737
 20
-277.9681799855314
 42
-0.4142135623730951
 10
-23.31258563793737
 20
-278.3570887151839
 10
-24.16818484317309
 20
-279.2126879204197
  0
CIRCLE
  5
4B9
102
{ACAD_REACTORS
330
4C0
102
}
330
2
100
AcDbEntity
  8
KRABICKA
100
AcDbCircle
 10
120.4429064271743
 20
-279.2126879204197
 30
0.0
 40
2.75
  0
LWPOLYLINE
  5
4BA
102
{ACAD_REACTORS
330
4C0
330
4C1
102
}
330
2
100
AcDbEntity
  8
KRABICKA
100
AcDbPolyline
 90
        6
 70
     0
 43
0.0
 10
120.4429064271743
 20
-279.6015966500723
 10
121.29850563241
 20
-280.457195855308
 42
0.4142135623730951
 10
121.6874143620626
 20
-280.457195855308
 10
121.6874143620626
 20
-280.457195855308
 42
0.4142135623730951
 10
121.6874143620626
 20
-280.0682871256554
 10
120.8318151568269
 20
-279.2126879204197
  0
LWPOLYLINE
  5
4BB
102
{ACAD_REACTORS
330
4C0
330
4C1
102
}
330
2
100
AcDbEntity
  8
KRABICKA
100
AcDbPolyline
 90
        6
 70
     0
 43
0.0
 10
120.8318151568269
 20
-279.2126879204197
 10
121.6874143620626
 20
-278.3570887151839
 42
0.4142135623730951
 10
121.6874143620626
 20
-277.9681799855314
 10
121.6874143620626
 20
-277.9681799855314
 42
0.4142135623730951
 10
121.29850563241
 20
-277.9681799855314
 10
120.4429064271743
 20
-278.8237791907671
  0
LWPOLYLINE
  5
4BC
102
{ACAD_REACTORS
330
4C0
330
4C1
102
}
330
2
100
AcDbEntity
  8
KRABICKA
100
AcDbPolyline
 90
        6
 70
     0
 43
0.0
 10
120.0539976975217
 20
-279.2126879204197
 10
119.1983984922859
 20
-280.0682871256554
 42
0.4142135623730951
 10
119.1983984922859
 20
-280.457195855308
 10
119.1983984922859
 20
-280.457195855308
 42
0.4142135623730951
 10
119.5873072219385
 20
-280.457195855308
 10
120.4429064271743
 20
-279.6015966500723
  0
LWPOLYLINE
  5
4BD
102
{ACAD_REACTORS
330
4C0
330
4C1
102
}
330
2
100
AcDbEntity
  8
KRABICKA
100
AcDbPolyline
 90
        6
 70
     0
 43
0.0
 10
120.4429064271743
 20
-278.8237791907671
 10
119.5873072219385
 20
-277.9681799855314
 42
0.4142135623730951
 10
119.1983984922859
 20
-277.9681799855314
 10
119.1983984922859
 20
-277.9681799855314
 42
0.4142135623730951
 10
119.1983984922859
 20
-278.3570887151839
 10
120.0539976975217
 20
-279.2126879204197
  0
LWPOLYLINE
  5
4C2
330
2
100
AcDbEntity
  8
KRABICKA
  6
ČÁRKOVANÁ
 62
     5
100
AcDbPolyline
 90
        4
 70
     1
 43
0.0
 10
-35.55709357282569
 20
-287.7126879204197
 10
131.4429064271743
 20
-287.7126879204197
 10
131.4429064271743
 20
-195.712687238285
 10
-35.55709357282569
 20
-195.712687238285
  0
DIMENSION
  5
4F4
330
2
100
AcDbEntity
  8
KOTY
100
AcDbDimension
  2
*D8
 10
131.4429064271743
 20
-182.6998292622965
 30
0.0
 11
48.07779571270675
 21
-180.1998292622965
 31
0.0
 70
    32
 71
     5
 42
166.7302214289351
  3
KOTY
100
AcDbAlignedDimension
 13
-35.28731500176081
 23
-195.712687238285
 33
0.0
 14
131.4429064271743
 24
-195.712687238285
 34
0.0
100
AcDbRotatedDimension
1001
ACAD
1000
DSTYLE
1002
{
1070
   177
1070
   256
1070
   176
1070
   256
1070
   178
1070
   256
1070
    40
1040
1.0
1002
}
  0
DIMENSION
  5
501
330
2
100
AcDbEntity
  8
KOTY
100
AcDbDimension
  2
*D9
 10
-44.96216116524351
 20
-287.7126879204197
 30
0.0
 11
-47.46216116524347
 21
-241.7126875793524
 31
0.0
 70
    32
 71
     5
 42
92.00000068213464
  3
KOTY
100
AcDbAlignedDimension
 13
-35.28731500176081
 23
-195.712687238285
 33
0.0
 14
-35.55709357282569
 24
-287.7126879204197
 34
0.0
 50
90.0
100
AcDbRotatedDimension
1001
ACAD
1000
DSTYLE
1002
{
1070
   177
1070
   256
1070
   176
1070
   256
1070
   178
1070
   256
1070
    40
1040
1.0
1002
}
  0
HATCH
  5
524
330
2
100
AcDbEntity
  8
STITEK_M
100
AcDbHatch
 10
0.0
 20
0.0
 30
0.0
210
0.0
220
0.0
230
1.0
  2
SOLID
 70
     1
 71
     1
 91
        8
 92
        1
 93
        4
 72
     1
 10
-39.05709357282569
 20
-148.5693594738603
 11
134.9429064271743
 21
-148.5693594738603
 72
     1
 10
134.9429064271743
 20
-148.5693594738603
 11
134.9429064271743
 21
-43.5693587917257
 72
     1
 10
134.9429064271743
 20
-43.5693587917257
 11
-39.05709357282569
 21
-43.5693587917257
 72
     1
 10
-39.05709357282569
 20
-43.5693587917257
 11
-39.05709357282569
 21
-148.5693594738603
 97
        1
330
127
 92
       16
 93
        8
 72
     1
 10
-17.05709357282569
 20
-99.56935921130813
 11
40.94290642717431
 21
-99.56935921130813
 72
     2
 10
40.94290642717431
 20
-98.56935921130812
 40
1.0
 50
270.0
 51
360.0
 73
     1
 72
     1
 10
41.9429064271743
 20
-98.56935921130812
 11
41.9429064271743
 21
-78.56935921130812
 72
     2
 10
40.94290642717431
 20
-78.56935921130812
 40
1.0
 50
0.0
 51
90.0
 73
     1
 72
     1
 10
40.94290642717431
 20
-77.56935921130812
 11
-17.05709357282569
 21
-77.56935921130812
 72
     2
 10
-17.05709357282569
 20
-78.56935921130812
 40
1.0
 50
90.0
 51
180.0
 73
     1
 72
     1
 10
-18.05709357282569
 20
-78.56935921130812
 11
-18.05709357282569
 21
-98.56935921130812
 72
     2
 10
-17.05709357282569
 20
-98.56935921130812
 40
1.0
 50
180.0
 51
270.0
 73
     1
 97
        1
330
1B0
 92
       16
 93
        8
 72
     1
 10
78.94290642717431
 20
-86.81935947386028
 11
85.9429064271743
 21
-86.81935947386028
 72
     2
 10
85.9429064271743
 20
-85.81935947386027
 40
1.0
 50
270.0
 51
360.0
 73
     1
 72
     1
 10
86.94290642717431
 20
-85.81935947386027
 11
86.94290642717431
 21
-78.81935947386027
 72
     2
 10
85.9429064271743
 20
-78.81935947386027
 40
1.0
 50
0.0
 51
90.0
 73
     1
 72
     1
 10
85.9429064271743
 20
-77.81935947386028
 11
78.94290642717431
 21
-77.81935947386028
 72
     2
 10
78.94290642717431
 20
-78.81935947386027
 40
1.0
 50
90.0
 51
180.0
 73
     1
 72
     1
 10
77.94290642717431
 20
-78.81935947386027
 11
77.94290642717431
 21
-85.81935947386027
 72
     2
 10
78.94290642717431
 20
-85.81935947386027
 40
1.0
 50
180.0
 51
270.0
 73
     1
 97
        1
330
1F1
 92
       16
 93
        8
 72
     1
 10
66.1929064271743
 20
-86.81935947386028
 11
73.1929064271743
 21
-86.81935947386028
 72
     2
 10
73.1929064271743
 20
-85.81935947386027
 40
1.0
 50
270.0
 51
360.0
 73
     1
 72
     1
 10
74.19290642717431
 20
-85.81935947386027
 11
74.19290642717431
 21
-78.81935947386027
 72
     2
 10
73.1929064271743
 20
-78.81935947386027
 40
1.0
 50
0.0
 51
90.0
 73
     1
 72
     1
 10
73.1929064271743
 20
-77.81935947386028
 11
66.1929064271743
 21
-77.81935947386028
 72
     2
 10
66.1929064271743
 20
-78.81935947386027
 40
1.0
 50
90.0
 51
180.0
 73
     1
 72
     1
 10
65.19290642717431
 20
-78.81935947386027
 11
65.19290642717431
 21
-85.81935947386027
 72
     2
 10
66.1929064271743
 20
-85.81935947386027
 40
1.0
 50
180.0
 51
270.0
 73
     1
 97
        1
330
1F0
 92
       16
 93
        8
 72
     1
 10
53.44290642717431
 20
-86.81935947386028
 11
60.44290642717431
 21
-86.81935947386028
 72
     2
 10
60.44290642717431
 20
-85.81935947386027
 40
1.0
 50
270.0
 51
360.0
 73
     1
 72
     1
 10
61.44290642717431
 20
-85.81935947386027
 11
61.44290642717431
 21
-78.81935947386027
 72
     2
 10
60.44290642717431
 20
-78.81935947386027
 40
1.0
 50
0.0
 51
90.0
 73
     1
 72
     1
 10
60.44290642717431
 20
-77.81935947386028
 11
53.44290642717431
 21
-77.81935947386028
 72
     2
 10
53.44290642717431
 20
-78.81935947386027
 40
1.0
 50
90.0
 51
180.0
 73
     1
 72
     1
 10
52.4429064271743
 20
-78.81935947386027
 11
52.4429064271743
 21
-85.81935947386027
 72
     2
 10
53.44290642717431
 20
-85.81935947386027
 40
1.0
 50
180.0
 51
270.0
 73
     1
 97
        1
330
1EF
 92
       16
 93
        8
 72
     1
 10
78.94290642717431
 20
-99.31935947386026
 11
85.9429064271743
 21
-99.31935947386026
 72
     2
 10
85.9429064271743
 20
-98.31935947386027
 40
1.0
 50
270.0
 51
360.0
 73
     1
 72
     1
 10
86.94290642717431
 20
-98.31935947386027
 11
86.94290642717431
 21
-91.31935947386025
 72
     2
 10
85.9429064271743
 20
-91.31935947386025
 40
1.0
 50
0.0
 51
90.0
 73
     1
 72
     1
 10
85.9429064271743
 20
-90.31935947386026
 11
78.94290642717431
 21
-90.31935947386026
 72
     2
 10
78.94290642717431
 20
-91.31935947386025
 40
1.0
 50
90.0
 51
180.0
 73
     1
 72
     1
 10
77.94290642717431
 20
-91.31935947386025
 11
77.94290642717431
 21
-98.31935947386027
 72
     2
 10
78.94290642717431
 20
-98.31935947386027
 40
1.0
 50
180.0
 51
270.0
 73
     1
 97
        1
330
1F4
 92
       16
 93
        8
 72
     1
 10
66.1929064271743
 20
-99.31935947386026
 11
73.1929064271743
 21
-99.31935947386026
 72
     2
 10
73.1929064271743
 20
-98.31935947386027
 40
1.0
 50
270.0
 51
360.0
 73
     1
 72
     1
 10
74.19290642717431
 20
-98.31935947386027
 11
74.19290642717431
 21
-91.31935947386025
 72
     2
 10
73.1929064271743
 20
-91.31935947386025
 40
1.0
 50
0.0
 51
90.0
 73
     1
 72
     1
 10
73.1929064271743
 20
-90.31935947386026
 11
66.1929064271743
 21
-90.31935947386026
 72
     2
 10
66.1929064271743
 20
-91.31935947386025
 40
1.0
 50
90.0
 51
180.0
 73
     1
 72
     1
 10
65.19290642717431
 20
-91.31935947386025
 11
65.19290642717431
 21
-98.31935947386027
 72
     2
 10
66.1929064271743
 20
-98.31935947386027
 40
1.0
 50
180.0
 51
270.0
 73
     1
 97
        1
330
1F3
 92
       16
 93
        8
 72
     1
 10
53.44290642717431
 20
-99.31935947386026
 11
60.44290642717431
 21
-99.31935947386026
 72
     2
 10
60.44290642717431
 20
-98.31935947386027
 40
1.0
 50
270.0
 51
360.0
 73
     1
 72
     1
 10
61.44290642717431
 20
-98.31935947386027
 11
61.44290642717431
 21
-91.31935947386025
 72
     2
 10
60.44290642717431
 20
-91.31935947386025
 40
1.0
 50
0.0
 51
90.0
 73
     1
 72
     1
 10
60.44290642717431
 20
-90.31935947386026
 11
53.44290642717431
 21
-90.31935947386026
 72
     2
 10
53.44290642717431
 20
-91.31935947386025
 40
1.0
 50
90.0
 51
180.0
 73
     1
 72
     1
 10
52.4429064271743
 20
-91.31935947386025
 11
52.4429064271743
 21
-98.31935947386027
 72
     2
 10
53.44290642717431
 20
-98.31935947386027
 40
1.0
 50
180.0
 51
270.0
 73
     1
 97
        1
330
1F2
 75
     0
 76
     1
 98
        1
 10
231.5512852835895
 20
0.0
  0
ENDSEC
  0
SECTION
  2
OBJECTS
  0
DICTIONARY
  5
9
330
0
100
AcDbDictionary
281
     1
  3
ACAD_GROUP
350
28
  3
ACAD_LAYOUT
350
D
  3
ACAD_MLINESTYLE
350
29
  3
ACAD_PLOTSETTINGS
350
2A
  3
ACAD_PLOTSTYLENAME
350
8
  3
AcDbVariableDictionary
350
244
  0
DICTIONARY
  5
3
330
2
100
AcDbDictionary
280
     1
281
     1
  3
ACAD_SORTENTS
360
4
  0
DICTIONARY
  5
28
102
{ACAD_REACTORS
330
9
102
}
330
9
100
AcDbDictionary
281
     1
  3
*A1
350
4AA
  3
*A10
350
31C
  3
*A11
350
354
  3
*A12
350
35D
  3
*A13
350
365
  3
*A14
350
36E
  3
*A15
350
377
  3
*A16
350
38C
  3
*A2
350
4AC
  3
*A3
350
4B2
  3
*A4
350
4B3
  3
*A5
350
4BE
  3
*A6
350
4BF
  3
*A7
350
4C0
  3
*A8
350
4C1
  3
*A9
350
311
  0
DICTIONARY
  5
D
102
{ACAD_REACTORS
330
9
102
}
330
9
100
AcDbDictionary
281
     1
  3
1
350
11
  3
Model
350
C
  0
DICTIONARY
  5
29
102
{ACAD_REACTORS
330
9
102
}
330
9
100
AcDbDictionary
281
     1
  3
STANDARD
350
2C
  0
DICTIONARY
  5
2A
102
{ACAD_REACTORS
330
9
102
}
330
9
100
AcDbDictionary
281
     1
  0
ACDBDICTIONARYWDFLT
  5
8
102
{ACAD_REACTORS
330
9
102
}
330
9
100
AcDbDictionary
281
     1
  3
Normal
350
7
100
AcDbDictionaryWithDefault
340
7
  0
DICTIONARY
  5
244
102
{ACAD_REACTORS
330
9
102
}
330
9
100
AcDbDictionary
281
     1
  3
SORTENTS
350
245
  0
SORTENTSTABLE
  5
4
102
{ACAD_REACTORS
330
3
102
}
330
3
100
AcDbSortentsTable
330
2
331
36D
  5
4A7
331
34D
  5
386
331
44A
  5
216
331
1B1
  5
239
331
21D
  5
1C9
331
4AF
  5
223
331
22D
  5
1D8
331
35A
  5
3DD
331
1D5
  5
361
331
38A
  5
4C2
331
1BE
  5
328
331
20D
  5
1B9
331
36A
  5
4A4
331
1CE
  5
359
331
34A
  5
383
331
447
  5
213
331
21A
  5
1C6
331
1F2
  5
374
331
22A
  5
1D5
331
1D2
  5
35E
331
387
  5
4BB
331
1BB
  5
2A3
331
4BC
  5
22E
331
20A
  5
1B6
331
367
  5
457
331
1CB
  5
356
331
347
  5
1B0
331
357
  5
38B
331
227
  5
1D2
331
384
  5
4B8
331
1B8
  5
24B
331
4B9
  5
22B
331
3EC
  5
20E
331
207
  5
1B3
331
364
  5
44A
331
1C8
  5
34F
331
217
  5
1C3
331
374
  5
4AD
331
1EF
  5
36C
331
419
  5
210
331
3C9
  5
518
331
4A6
  5
21D
331
224
  5
1CF
331
381
  5
4B5
331
4B6
  5
228
331
361
  5
447
331
1C5
  5
34B
331
214
  5
1C0
331
371
  5
4A8
331
2A1
  5
380
331
1B5
  5
241
331
241
  5
1F4
331
221
  5
1CC
331
37E
  5
4B0
331
231
  5
1E1
331
35E
  5
419
331
1D9
  5
367
331
1C2
  5
347
331
211
  5
1BD
331
1B2
  5
23E
331
23E
  5
1F1
331
21E
  5
1CA
331
4B0
  5
224
331
22E
  5
1D9
331
35B
  5
3EC
331
1D6
  5
362
331
38B
  5
4F4
331
20E
  5
1BA
331
1BF
  5
332
331
36B
  5
4A5
331
1CF
  5
35A
331
34B
  5
384
331
448
  5
214
331
127
  5
1B1
331
3B0
  5
501
331
24B
  5
37E
331
21B
  5
1C7
331
1F3
  5
375
331
4AD
  5
221
331
22B
  5
1D6
331
358
  5
3B0
331
1D3
  5
35F
331
388
  5
4BC
331
1BC
  5
30F
331
4BD
  5
22F
331
20B
  5
1B7
331
368
  5
46D
331
1CC
  5
357
331
495
  5
21A
331
46D
  5
218
331
238
  5
1EF
331
218
  5
1C5
331
1F0
  5
36D
331
228
  5
1D3
331
1D0
  5
35B
331
385
  5
4B9
331
1B9
  5
25F
331
4BA
  5
22C
331
208
  5
1B4
331
1C9
  5
352
331
375
  5
4AE
331
345
  5
382
331
41A
  5
211
331
4A7
  5
21E
331
225
  5
1D0
331
382
  5
4B6
331
4B7
  5
229
331
362
  5
448
331
457
  5
217
331
215
  5
1C1
331
1C6
  5
34C
331
352
  5
388
331
1B6
  5
242
331
242
  5
207
331
4A4
  5
21B
331
222
  5
1CD
331
37F
  5
4B1
331
4B4
  5
226
331
232
  5
1E4
331
35F
  5
41A
331
1DA
  5
368
331
212
  5
1BE
331
1C3
  5
34A
331
34F
  5
387
331
25F
  5
37F
331
1B3
  5
23F
331
30F
  5
209
331
23F
  5
1F2
331
4B1
  5
225
331
22F
  5
1DA
331
35C
  5
40B
331
1D7
  5
363
331
1C0
  5
339
331
20F
  5
1BB
331
36C
  5
4A6
331
34C
  5
385
331
449
  5
215
331
1B0
  5
1B2
331
524
  5
127
331
21C
  5
1C8
331
1F4
  5
376
331
4AE
  5
222
331
22C
  5
1D7
331
359
  5
3C9
331
1D4
  5
360
331
389
  5
4BD
331
4F4
  5
231
331
20C
  5
1B8
331
1BD
  5
310
331
369
  5
495
331
1E4
  5
36B
331
1CD
  5
358
331
239
  5
1F0
331
501
  5
232
331
1F1
  5
371
331
229
  5
1D4
331
1D1
  5
35C
331
386
  5
4BA
331
1BA
  5
2A1
331
4BB
  5
22D
331
209
  5
1B5
331
1E1
  5
36A
331
1CA
  5
353
331
376
  5
4AF
331
356
  5
38A
331
41B
  5
212
331
4A8
  5
220
331
40B
  5
20F
331
226
  5
1D1
331
383
  5
4B7
331
4B8
  5
22A
331
363
  5
449
331
1C7
  5
34D
331
216
  5
1C2
331
353
  5
389
331
2A3
  5
381
331
1B7
  5
243
331
243
  5
208
331
4A5
  5
21C
331
223
  5
1CE
331
380
  5
4B4
331
4B5
  5
227
331
360
  5
41B
331
1DB
  5
369
331
213
  5
1BF
331
1B4
  5
240
331
518
  5
238
331
4C2
  5
230
331
310
  5
20D
331
240
  5
1F3
331
220
  5
1CB
331
3DD
  5
524
331
230
  5
1DB
331
1D8
  5
364
331
1C1
  5
345
331
210
  5
1BC
  0
GROUP
  5
4AA
102
{ACAD_REACTORS
330
28
102
}
330
28
100
AcDbGroup
300

 70
     1
 71
     1
340
4A8
340
4A7
340
4A6
340
4A5
  0
GROUP
  5
31C
102
{ACAD_REACTORS
330
28
102
}
330
28
100
AcDbGroup
300

 70
     1
 71
     1
340
2A3
340
2A1
340
1E4
340
1E1
340
1DB
340
1DA
340
1D9
340
1D8
340
1D7
340
1D6
340
1D5
340
1D4
340
1D3
340
1D2
340
1D1
340
1D0
340
1CF
340
1CE
340
1CD
340
1CC
340
1CB
340
1CA
340
1C9
  0
GROUP
  5
354
102
{ACAD_REACTORS
330
28
102
}
330
28
100
AcDbGroup
300

 70
     1
 71
     1
340
353
340
352
340
34F
340
34D
340
34C
340
34B
340
34A
  0
GROUP
  5
35D
102
{ACAD_REACTORS
330
28
102
}
330
28
100
AcDbGroup
300

 70
     1
 71
     1
340
35C
340
35B
340
35A
340
359
340
358
340
357
340
356
  0
GROUP
  5
365
102
{ACAD_REACTORS
330
28
102
}
330
28
100
AcDbGroup
300

 70
     1
 71
     1
340
364
340
363
340
362
340
361
340
360
340
35F
340
35E
  0
GROUP
  5
36E
102
{ACAD_REACTORS
330
28
102
}
330
28
100
AcDbGroup
300

 70
     1
 71
     1
340
36D
340
36C
340
36B
340
36A
340
369
340
368
340
367
  0
GROUP
  5
377
102
{ACAD_REACTORS
330
28
102
}
330
28
100
AcDbGroup
300

 70
     1
 71
     1
340
376
340
375
340
374
340
371
  0
GROUP
  5
38C
102
{ACAD_REACTORS
330
28
102
}
330
28
100
AcDbGroup
300

 70
     1
 71
     1
340
38B
340
38A
340
389
340
388
340
385
340
384
340
383
340
382
340
381
340
380
340
37F
340
37E
340
387
340
386
  0
GROUP
  5
4AC
102
{ACAD_REACTORS
330
28
102
}
330
28
100
AcDbGroup
300

 70
     1
 71
     1
340
4A8
340
4A7
340
4A6
340
4A5
340
4A4
  0
GROUP
  5
4B2
102
{ACAD_REACTORS
330
28
102
}
330
28
100
AcDbGroup
300

 70
     1
 71
     1
340
4B1
340
4B0
340
4AF
340
4AE
340
4AD
  0
GROUP
  5
4B3
102
{ACAD_REACTORS
330
28
102
}
330
28
100
AcDbGroup
300

 70
     1
 71
     1
340
4B1
340
4B0
340
4AF
340
4AE
  0
GROUP
  5
4BE
102
{ACAD_REACTORS
330
28
102
}
330
28
100
AcDbGroup
300

 70
     1
 71
     1
340
4B8
340
4B7
340
4B6
340
4B5
340
4B4
  0
GROUP
  5
4BF
102
{ACAD_REACTORS
330
28
102
}
330
28
100
AcDbGroup
300

 70
     1
 71
     1
340
4B8
340
4B7
340
4B6
340
4B5
  0
GROUP
  5
4C0
102
{ACAD_REACTORS
330
28
102
}
330
28
100
AcDbGroup
300

 70
     1
 71
     1
340
4BD
340
4BC
340
4BB
340
4BA
340
4B9
  0
GROUP
  5
4C1
102
{ACAD_REACTORS
330
28
102
}
330
28
100
AcDbGroup
300

 70
     1
 71
     1
340
4BD
340
4BC
340
4BB
340
4BA
  0
GROUP
  5
311
102
{ACAD_REACTORS
330
28
102
}
330
28
100
AcDbGroup
300

 70
     1
 71
     1
340
25F
340
1C0
340
1BF
340
1BA
340
1B9
340
1C3
340
1B5
340
1B4
340
1BD
340
1BC
340
1BB
340
1B6
340
1B3
340
1B2
340
1B1
340
1BE
340
1C2
340
1B8
340
1B7
340
24B
340
1C7
340
1C6
340
1C5
  0
LAYOUT
  5
11
102
{ACAD_REACTORS
330
D
102
}
330
D
100
AcDbPlotSettings
  1

  2
Minolta PagePro 20.pc3
  4
A4
  6

 40
4.603749752044677
 41
4.60374641418457
 42
7.14373779296875
 43
6.085418701171875
 44
296.9259948730469
 45
210.0579986572265
 46
0.0
 47
0.0
 48
2.354006699398119
 49
6.538928530334953
140
4.483215723852222
141
7.006445727226219
142
1.0
143
0.0074662324464898
 70
   688
 72
     1
 73
     0
 74
     4
  7
pera čb.ctb
 75
     0
147
133.9363604290325
148
-2.354006699398119
149
-6.538928530334953
100
AcDbLayout
  1
1
 70
     1
 71
     1
 10
2.319634033623884
 20
6.504555889481957
 11
4.536552530751301
 21
8.07289773470126
 12
0.0
 22
0.0
 32
0.0
 14
1.13274998364486
 24
0.7785833107204887
 34
0.0
 15
10.19474985280374
 25
7.007249796484399
 35
0.0
146
0.0
 13
0.0
 23
0.0
 33
0.0
 16
1.0
 26
0.0
 36
0.0
 17
0.0
 27
1.0
 37
0.0
 76
     0
330
E
  0
LAYOUT
  5
C
102
{ACAD_REACTORS
330
D
102
}
330
D
100
AcDbPlotSettings
  1

  2
Minolta PagePro 20
  4
A4
  6

 40
4.603749752044677
 41
4.60374641418457
 42
7.14373779296875
 43
6.085418701171875
 44
296.9259948730469
 45
210.0579986572265
 46
0.0
 47
0.0
 48
0.0
 49
0.0
140
0.0
141
0.0
142
1.0
143
1.0
 70
 11952
 72
     0
 73
     0
 74
     0
  7
pera čb.ctb
 75
     0
147
1.0
148
6654.664892276386
149
10450.86072573765
100
AcDbLayout
  1
Model
 70
     1
 71
     0
 10
0.0
 20
0.0
 11
12.0
 21
9.0
 12
0.0
 22
0.0
 32
0.0
 14
0.0
 24
0.0
 34
0.0
 15
0.0
 25
0.0
 35
0.0
146
0.0
 13
0.0
 23
0.0
 33
0.0
 16
1.0
 26
0.0
 36
0.0
 17
0.0
 27
1.0
 37
0.0
 76
     0
330
2
  0
MLINESTYLE
  5
2C
102
{ACAD_REACTORS
330
29
102
}
330
29
100
AcDbMlineStyle
  2
STANDARD
 70
     0
  3

 62
     0
 51
90.0
 52
90.0
 71
     2
 49
0.5
 62
   256
  6
BYLAYER
 49
-0.5
 62
   256
  6
BYLAYER
  0
ACDBPLACEHOLDER
  5
7
102
{ACAD_REACTORS
330
8
102
}
330
8
  0
DICTIONARYVAR
  5
245
102
{ACAD_REACTORS
330
244
102
}
330
244
100
DictionaryVariables
280
     0
  1
127
  0
ENDSEC
  0
EOF
